<?xml version="1.0" standalone="no"?>
<!DOCTYPE svg PUBLIC "-//W3C//DTD SVG 1.1//EN" "http://www.w3.org/Graphics/SVG/1.1/DTD/svg11.dtd" >
<svg xmlns="http://www.w3.org/2000/svg">
<metadata></metadata>
<defs>
<font id="insidelogoregular" horiz-adv-x="1024" >
<font-face units-per-em="1024" ascent="896" descent="-128" />
<missing-glyph horiz-adv-x="307" />
<glyph horiz-adv-x="0" d="M0 0z" />
<glyph horiz-adv-x="0" d="M0 0z" />
<glyph horiz-adv-x="341" />
<glyph horiz-adv-x="0" d="M0 0z" />
<glyph unicode=" " horiz-adv-x="307" d="M0 0z" />
<glyph unicode="1" horiz-adv-x="2123" d="M103 3v734h128v-734h-128zM294 3v734h119l129 -371v371h125v-734h-113l-136 389v-389h-124zM700 612q0 -81 35 -138.5t117 -151.5q58 -65 73.5 -97t15.5 -63v-2q0 -20 -6 -35.5t-19 -25.5q-11 -10 -26.5 -14.5t-34.5 -4.5q-29 0 -62.5 11.5t-78.5 38.5v-162 q38 -19 78 -28t82 -9q46 0 87 16.5t71 48.5q16 16 27.5 34.5t20.5 40.5q8 22 12.5 46.5t4.5 50.5v2q0 42 -6.5 73.5t-22.5 63.5q-16 31 -44.5 70t-77.5 96q-58 66 -74 90.5t-16 56.5v3q0 18 6.5 33t19.5 25q11 11 26 16t32 5q31 0 57 -10t62 -30v162q-31 15 -62 21.5 t-76 6.5q-47 0 -87.5 -16.5t-70.5 -47.5q-30 -33 -46.5 -77t-16.5 -96v-3zM1133 3v734h128v-734h-128zM1323 3v734h120q61 0 109 -22t80.5 -66.5t50 -111t17.5 -154.5v-26q0 -88 -17.5 -154.5t-50 -111t-80.5 -66.5t-109 -22h-120zM1451 121h5q46 0 79.5 49.5t33.5 186.5v26 q0 137 -33.5 187t-79.5 50h-5v-499zM1747 3v734h281v-122h-153v-182h135v-122h-135v-186h156v-122h-284z" />
<glyph unicode="2" horiz-adv-x="1996" d="M103 3v719h203v-270h124v270h202v-719h-202v282h-124v-282h-203zM664 3v719h44.5h100h105h58.5q38 -1 71 -7.5t55 -19.5q40 -23 67.5 -67t27.5 -85v-3q23 44 56.5 80.5t76 62.5t92.5 40t105 14q78 0 146.5 -28t118.5 -77.5t79 -116t29 -143.5t-29 -144t-79 -116t-118 -77 t-146 -28q-54 0 -103 13.5t-91 38t-75.5 59.5t-56.5 77q-5 -38 -23.5 -71.5t-46.5 -58.5q-41 -38 -87.5 -50t-147.5 -12h-229zM857 174h59q35 0 63 12t28 56q0 34 -29 44t-62 10h-59v-122zM857 443h68q40 0 59 16.5t19 46.5q0 29 -18 44t-60 15h-68v-122zM1093 373 q18 -6 34 -17t29 -26q-1 10 -1.5 20.5t-0.5 21.5t0.5 21.5t1.5 21.5q-11 -13 -26.5 -24t-36.5 -18zM1341 372q0 -76 53.5 -130t130.5 -54q76 0 130 54t54 130t-54 130t-130 54q-77 0 -130.5 -54t-53.5 -130zM1376 372q0 62 43.5 105.5t105.5 43.5t105.5 -43.5t43.5 -105.5 t-43.5 -105.5t-105.5 -43.5t-105.5 44t-43.5 105zM1821 685q0 -16 11 -27t27 -11q15 0 26 11t11 27t-11 26.5t-26 10.5q-16 0 -27 -10.5t-11 -26.5zM1829 685q0 13 8.5 22t21.5 9q12 0 20.5 -9t8.5 -22q0 -14 -8.5 -22.5t-20.5 -8.5q-13 0 -21.5 8.5t-8.5 22.5zM1845 663h6 v19h7l12 -19h7l-12 19q4 1 7.5 3.5t3.5 8.5t-4 9t-11 3h-16v-43zM1851 687v14h9q3 0 6 -1.5t3 -5.5q0 -5 -3 -6t-8 -1h-7z" />
<glyph unicode="3" horiz-adv-x="3138" d="M93 3v734h127v-734h-127zM283 3v734h120l129 -371v371h125v-734h-114l-135 389v-389h-125zM690 612q0 -81 34.5 -138.5t117.5 -151.5q57 -65 73 -97t16 -63v-2q0 -20 -6.5 -35.5t-18.5 -25.5t-27 -14.5t-34 -4.5q-29 0 -62.5 11.5t-79.5 38.5v-162q39 -19 79 -28t82 -9 q46 0 87 16.5t71 48.5q16 16 27.5 34.5t19.5 40.5q9 22 13 46.5t4 50.5v2q0 42 -6.5 73.5t-21.5 63.5q-16 31 -44.5 70t-78.5 96q-57 66 -73 90.5t-16 56.5v3q0 18 6.5 33t18.5 25q12 11 27 16t31 5q32 0 58 -10t62 -30v162q-31 15 -62.5 21.5t-76.5 6.5q-46 0 -86.5 -16.5 t-70.5 -47.5q-31 -33 -47 -77t-16 -96v-3zM1123 3v734h128v-734h-128zM1313 3v734h119q62 0 109.5 -22t80.5 -66.5t50 -111t17 -154.5v-26q0 -88 -17 -154.5t-50 -111t-80.5 -66.5t-109.5 -22h-119zM1441 121h5q46 0 79.5 49.5t33.5 186.5v26q0 137 -33.5 187t-79.5 50h-5 v-499zM1737 3v734h281v-122h-153v-182h135v-122h-135v-186h156v-122h-284zM2176 186v362h103v-136h62v136h101v-362h-101v142h-62v-142h-103zM2458 186v362h73h82q20 -1 36.5 -4.5t26.5 -9.5q21 -12 34.5 -34t13.5 -43v-1h1q22 45 66 72t99 27q79 0 133.5 -53t54.5 -131 q0 -77 -54.5 -130t-132.5 -53q-54 0 -97.5 26t-66.5 69q-3 -19 -12 -36t-23 -30q-21 -19 -44.5 -25t-74.5 -6h-115zM2556 272h29q18 0 32 6t14 28q0 17 -14.5 22t-31.5 5h-29v-61zM2556 407h34q20 0 29.5 8.5t9.5 23.5t-9 22.5t-30 7.5h-34v-62zM2674 372q10 -3 17.5 -8.5 t14.5 -13.5q-1 6 -1 11v10q0 6 0.5 11.5t0.5 10.5q-6 -7 -13.5 -12t-18.5 -9zM2799 372q0 -39 27 -66t65 -27q39 0 66 27t27 66q0 38 -27 65t-66 27q-38 0 -65 -27t-27 -65zM2817 372q0 31 21.5 53t52.5 22t53 -22t22 -53t-22 -53t-53 -22t-52.5 22t-21.5 53zM3041 529 q0 -8 5.5 -13.5t12.5 -5.5q8 0 13.5 5.5t5.5 13.5t-5.5 13.5t-13.5 5.5q-7 0 -12.5 -5.5t-5.5 -13.5zM3044 529q0 7 4.5 11t10.5 4q7 0 11 -4t4 -11t-4 -11.5t-11 -4.5q-6 0 -10.5 4.5t-4.5 11.5zM3052 518h4v9h3l6 -9h3l-6 10q3 0 4.5 1.5t1.5 4.5t-2 4.5t-6 1.5h-8v-22z M3055 530v7h5q1 0 2.5 -0.5t1.5 -2.5q0 -3 -1.5 -3.5t-3.5 -0.5h-4z" />
<glyph unicode="4" d="M0 -128v1024h1024v-1024h-1024z" />
<glyph unicode="5" d="M12 180v400h114v-150h69v150h112v-401h-112v157h-69v-156h-114zM325 179v401h24.5h55.5h58.5h32.5q22 0 40 -4t30 -11q23 -13 38.5 -37.5t15.5 -47.5v-2q25 50 73.5 80t109.5 30q44 0 82 -15.5t66 -43t44 -64.5t16 -80t-16 -80t-44 -64.5t-66 -43t-81 -15.5 q-60 0 -108 28.5t-74 76.5q-3 -22 -13 -40.5t-26 -32.5q-22 -21 -48 -28t-83 -7h-127zM432 275h33q20 0 35.5 6.5t15.5 31.5q0 19 -16.5 24t-34.5 5h-33v-67zM433 425h38q22 0 32.5 9t10.5 26q0 16 -10 24.5t-33 8.5h-38v-68zM564 386q10 -4 19 -10t16 -14q-1 5 -1 11v12v12 t1 12q-6 -8 -15 -13.5t-20 -9.5zM702 385q0 -42 30 -72.5t72 -30.5q43 0 73 30.5t30 72.5q0 43 -30 73t-73 30q-42 0 -72 -30t-30 -73zM722 385q0 34 24 58.5t58 24.5q35 0 59 -24.5t24 -58.5t-24 -58.5t-59 -24.5q-34 0 -58 24.5t-24 58.5zM970 559q0 -9 6 -14.5t15 -5.5 q8 0 14 5.5t6 14.5t-6 15t-14 6q-9 0 -15 -6t-6 -15zM974 559q0 8 4.5 13t12.5 5q6 0 11 -5t5 -13q0 -7 -5 -12t-11 -5q-8 0 -12.5 5t-4.5 12zM983 547h3v11h4l7 -11h4l-7 11q2 0 4 1.5t2 4.5q0 4 -2 5.5t-6 1.5h-9v-24zM986 561v7h5q2 0 3.5 -0.5t1.5 -2.5q0 -3 -1.5 -3.5 t-4.5 -0.5h-4z" />
<glyph unicode="6" d="M0 -128h1024v1024h-1024v-1024zM12 180v400h114v-150h69v150h112v-401h-112v157h-69v-156h-114zM325 179v401h24.5h55.5h58.5h32.5q22 0 40 -4t30 -11q23 -13 38.5 -37.5t15.5 -47.5v-2q25 50 73.5 80t109.5 30q44 0 82 -15.5t66 -43t44 -64.5t16 -80t-16 -80t-44 -64.5 t-66 -43t-81 -15.5q-60 0 -108 28.5t-74 76.5q-3 -22 -13 -40.5t-26 -32.5q-22 -21 -48 -28t-83 -7h-127zM432 275h33q20 0 35.5 6.5t15.5 31.5q0 19 -16.5 24t-34.5 5h-33v-67zM433 425h38q22 0 32.5 9t10.5 26q0 16 -10 24.5t-33 8.5h-38v-68zM564 386q10 -4 19 -10 t16 -14q-1 5 -1 11v12v12t1 12q-6 -8 -15 -13.5t-20 -9.5zM702 385q0 -42 30 -72.5t72 -30.5q43 0 73 30.5t30 72.5q0 43 -30 73t-73 30q-42 0 -72 -30t-30 -73zM722 385q0 34 24 58.5t58 24.5q35 0 59 -24.5t24 -58.5t-24 -58.5t-59 -24.5q-34 0 -58 24.5t-24 58.5z M970 559q0 9 6 15t15 6q8 0 14 -6t6 -15t-6 -14.5t-14 -5.5q-9 0 -15 5.5t-6 14.5zM974 559q0 -7 4.5 -12t12.5 -5q6 0 11 5t5 12q0 8 -5 13t-11 5q-8 0 -12.5 -5t-4.5 -13zM983 547v24h9q4 0 6 -1.5t2 -5.5q0 -3 -2 -4.5t-4 -1.5l7 -11h-4l-7 11h-4v-11h-3zM986 561h4 q3 0 4.5 0.5t1.5 3.5q0 2 -1.5 2.5t-3.5 0.5h-5v-7z" />
<glyph unicode="&#xa0;" horiz-adv-x="307" d="M0 0z" />
<glyph unicode="&#x2000;" horiz-adv-x="448" />
<glyph unicode="&#x2001;" horiz-adv-x="896" />
<glyph unicode="&#x2002;" horiz-adv-x="448" />
<glyph unicode="&#x2003;" horiz-adv-x="896" />
<glyph unicode="&#x2004;" horiz-adv-x="298" />
<glyph unicode="&#x2005;" horiz-adv-x="224" />
<glyph unicode="&#x2006;" horiz-adv-x="149" />
<glyph unicode="&#x2007;" horiz-adv-x="149" />
<glyph unicode="&#x2008;" horiz-adv-x="112" />
<glyph unicode="&#x2009;" horiz-adv-x="179" />
<glyph unicode="&#x200a;" horiz-adv-x="49" />
<glyph unicode="&#x202f;" horiz-adv-x="179" />
<glyph unicode="&#x205f;" horiz-adv-x="224" />
<glyph unicode="&#x25fc;" horiz-adv-x="500" d="M0 0z" />
</font>
</defs>
</svg>
