<?xml version="1.0" standalone="no"?>
<!DOCTYPE svg PUBLIC "-//W3C//DTD SVG 1.1//EN" "http://www.w3.org/Graphics/SVG/1.1/DTD/svg11.dtd" >
<svg>
<metadata>
Created by FontForge 20120731 at Mon Apr  4 23:41:12 2016
 By www
Copyright (C) 2001 Emigre, Inc., Designed by Frank Heine. All rights reserved.
</metadata>
<defs>
<font id="DallianceRoman" horiz-adv-x="0" >
  <font-face 
    font-family="Dalliance"
    font-weight="500"
    font-stretch="normal"
    units-per-em="1000"
    panose-1="0 0 0 0 0 0 0 0 0 0"
    ascent="800"
    descent="-200"
    x-height="286"
    cap-height="699"
    bbox="-108 -423 885 758.869"
    underline-thickness="48"
    underline-position="-153"
    stemh="27"
    stemv="92"
    unicode-range="U+0020-FB02"
  />
<missing-glyph horiz-adv-x="500" 
 />
    <glyph glyph-name=".notdef" horiz-adv-x="500" 
 />
    <glyph glyph-name="space" unicode=" " horiz-adv-x="230" 
 />
    <glyph glyph-name="exclam" unicode="!" horiz-adv-x="281" 
d="M201 481c0 -54 -41 -147 -41 -301c0 -28 -39 -28 -39 0c0 154 -41 247 -41 301c0 33 28 60 60 60c33 0 61 -27 61 -60zM199 48c0 -32 -27 -58 -59 -58s-59 26 -59 58s27 59 59 59s59 -27 59 -59z" />
    <glyph glyph-name="quotedbl" unicode="&#x22;" horiz-adv-x="341" 
d="M301 490c0 -45 -34 -124 -34 -228c0 -23 -35 -23 -35 0c0 104 -34 183 -34 228c0 28 24 51 51 51c28 0 52 -23 52 -51zM143 490c0 -45 -34 -124 -34 -228c0 -23 -35 -23 -35 0c0 104 -34 183 -34 228c0 28 24 51 51 51c28 0 52 -23 52 -51z" />
    <glyph glyph-name="numbersign" unicode="#" horiz-adv-x="482" 
d="M413 108h-77c-5 -34 -7 -57 -13 -92c-7 -41 -68 -30 -61 11c6 31 12 53 17 81h-109c-5 -34 -7 -57 -13 -92c-7 -41 -68 -30 -61 11c6 31 12 53 17 81h-44c-18 0 -18 27 0 27h49l23 128h-72c-18 0 -18 27 0 27h77c4 26 7 57 13 92c7 41 68 30 61 -11
c-6 -31 -12 -55 -17 -81h109c5 33 7 57 13 92c7 41 68 30 61 -11c-6 -31 -12 -53 -17 -81h44c18 0 18 -27 0 -27h-49l-23 -128h72c18 0 18 -27 0 -27zM307 263h-109l-23 -128h109z" />
    <glyph glyph-name="dollar" unicode="$" horiz-adv-x="590" 
d="M522 135c0 -94 -118 -142 -220 -145v-122c0 -18 -27 -18 -27 0v122c-109 7 -216 64 -216 147c0 35 28 52 54 52c36 0 46 -25 58 -59c15 -43 35 -99 104 -111v192l-108 40c-40 14 -92 39 -92 105c0 100 112 142 200 150v123c0 18 27 18 27 0v-122c126 0 165 -60 165 -108
s-36 -84 -75 -84c-26 0 -45 19 -45 42s18 38 37 42c21 4 29 13 29 27c0 15 -19 54 -111 54v-190l127 -47c40 -15 93 -43 93 -108zM275 300v178c-61 -9 -106 -46 -106 -92c0 -44 33 -58 64 -70zM426 109c0 44 -34 59 -62 69l-62 23v-184c74 0 124 46 124 92z" />
    <glyph glyph-name="percent" unicode="%" horiz-adv-x="624" 
d="M584 105c0 -64 -56 -115 -126 -115s-126 51 -126 115s56 116 126 116s126 -52 126 -116zM555 502l-450 -536c-20 -24 -56 6 -36 30l369 439c-17 -6 -40 -10 -61 -10c-45 0 -77 15 -104 27c12 -18 19 -39 19 -61c0 -64 -56 -115 -126 -115s-126 51 -126 115
s56 116 126 116c49 0 82 -14 115 -29c28 -13 55 -26 96 -26c55 0 96 24 142 80c20 24 56 -6 36 -30zM513 89c0 55 -24 105 -61 105c-31 0 -49 -30 -49 -73c0 -56 24 -104 61 -104c31 0 49 30 49 72zM221 375c0 55 -24 105 -61 105c-31 0 -49 -30 -49 -73
c0 -56 24 -104 61 -104c31 0 49 30 49 72z" />
    <glyph glyph-name="ampersand" unicode="&#x26;" horiz-adv-x="760" 
d="M411 56l-171 191c-39 -20 -64 -61 -64 -112c0 -63 58 -116 126 -116c36 0 74 13 109 37zM268 350l205 -228c15 25 24 49 24 72c0 19 -8 25 -8 43s13 39 42 39c21 0 28 -15 37 -31s18 -32 50 -32c36 0 77 33 101 63c11 15 33 -3 22 -16c-39 -49 -101 -92 -163 -92
c-23 0 -42 8 -53 14c-6 -30 -18 -59 -34 -80l67 -74c27 -2 52 -4 52 -4c18 -2 16 -28 -2 -27c0 0 -57 4 -94 4c-15 0 -35 -1 -52 -1l-32 36c-41 -30 -85 -46 -155 -46c-121 0 -205 65 -205 148c0 84 82 127 150 132l-37 41c-30 33 -46 58 -46 92c0 101 108 138 198 138
c103 0 131 -55 131 -97c0 -51 -38 -89 -77 -89c-26 0 -45 19 -45 42s18 38 37 42c21 4 35 16 35 34s-19 40 -73 40c-74 0 -117 -38 -117 -84c0 -33 25 -60 42 -79z" />
    <glyph glyph-name="quoteright" unicode="&#x2019;" horiz-adv-x="208" 
d="M35 492c0 27 22 49 51 49c35 0 77 -40 77 -96c0 -97 -96 -182 -113 -196c-15 -13 -34 9 -20 22c17 16 69 62 69 116c0 34 -20 50 -36 59c-13 8 -28 19 -28 46z" />
    <glyph glyph-name="parenleft" unicode="(" horiz-adv-x="300" 
d="M237 593c15 9 29 -12 14 -22c-23 -15 -46 -40 -62 -72c-32 -63 -47 -154 -47 -233s15 -170 47 -233c16 -32 39 -57 62 -72c15 -10 1 -31 -14 -22c-78 45 -187 148 -187 327s109 282 187 327z" />
    <glyph glyph-name="parenright" unicode=")" horiz-adv-x="300" 
d="M250 266c0 -179 -109 -282 -187 -327c-15 -9 -29 12 -14 22c23 15 46 40 62 72c32 63 47 154 47 233s-15 170 -47 233c-16 32 -39 57 -62 72c-15 10 -1 31 14 22c78 -45 187 -148 187 -327z" />
    <glyph glyph-name="asterisk" unicode="*" horiz-adv-x="392" 
d="M223 379c28 -29 58 -37 73 -59c14 -18 10 -45 -9 -58c-18 -14 -45 -10 -58 9c-16 22 -15 54 -33 89c-18 -36 -17 -67 -33 -89c-13 -19 -40 -23 -58 -9c-19 13 -23 40 -9 58c15 22 44 30 73 59c-39 5 -68 -6 -93 2c-22 8 -34 31 -27 53s31 34 53 27c25 -8 42 -33 78 -52
c-7 40 -26 63 -26 90c0 23 19 42 42 42s42 -19 42 -42c0 -27 -18 -50 -25 -89c35 18 52 43 77 51c22 7 46 -5 53 -27s-5 -45 -27 -53c-25 -8 -52 2 -93 -2z" />
    <glyph glyph-name="plus" unicode="+" horiz-adv-x="448" 
d="M371 136c-38 0 -62 3 -102 3h-17v-16c0 -40 3 -64 3 -102c0 -42 -62 -42 -62 0c0 38 3 62 3 102v16h-17c-40 0 -64 -3 -102 -3c-42 0 -42 62 0 62c38 0 62 -3 102 -3h17v16c0 40 -3 64 -3 102c0 42 62 42 62 0c0 -38 -3 -62 -3 -102v-16h17c40 0 64 3 102 3
c42 0 42 -62 0 -62z" />
    <glyph glyph-name="comma" unicode="," horiz-adv-x="266" 
d="M216 -11c0 -91 -66 -176 -117 -223c-14 -13 -33 6 -20 21c19 22 64 77 64 128c0 48 -25 64 -45 75c-18 10 -38 24 -38 56c0 33 27 60 60 60c48 0 96 -50 96 -117z" />
    <glyph glyph-name="hyphen" unicode="-" horiz-adv-x="402" 
d="M209 139h-16c-40 0 -64 -3 -102 -3c-42 0 -42 62 0 62c38 0 62 -3 102 -3h16c40 0 64 3 102 3c42 0 42 -62 0 -62c-38 0 -62 3 -102 3z" />
    <glyph glyph-name="period" unicode="." horiz-adv-x="237" 
d="M60 48c0 32 26 58 58 58s59 -26 59 -58s-27 -58 -59 -58s-58 26 -58 58z" />
    <glyph glyph-name="slash" unicode="/" horiz-adv-x="375" 
d="M340 476l-263 -563c-17 -36 -25 -59 -41 -94c-18 -38 -74 -12 -56 26c16 35 29 55 46 92l263 563c17 36 24 59 40 94c18 38 74 12 56 -27c-16 -34 -29 -54 -45 -91z" />
    <glyph glyph-name="zero" unicode="0" horiz-adv-x="502" 
d="M462 248c0 -143 -81 -258 -211 -258s-211 115 -211 258s81 259 211 259s211 -116 211 -259zM367 205c0 146 -49 275 -128 275c-67 0 -103 -76 -103 -189c0 -147 49 -274 128 -274c66 0 103 78 103 188z" />
    <glyph glyph-name="one" unicode="1" horiz-adv-x="332" 
d="M243 483v-457c26 -1 48 -3 48 -3c17 -2 15 -27 -2 -26c0 0 -57 4 -89 4c-30 0 -88 -4 -88 -4c-17 -1 -19 25 -2 26c0 0 22 2 47 3v294c-30 -52 -66 -95 -121 -130c-15 -10 -29 12 -14 22c95 62 134 153 170 271c4 13 11 24 28 24c14 0 23 -11 23 -24z" />
    <glyph glyph-name="two" unicode="2" horiz-adv-x="475" 
d="M218 145c45 0 75 -14 96 -34l33 -31c12 -11 26 -22 44 -22c23 0 39 22 48 44c7 17 31 10 26 -8c-14 -51 -64 -104 -120 -104c-45 0 -71 21 -92 41l-53 49c-13 12 -30 22 -45 22c-23 0 -35 -23 -45 -51c-11 -30 -30 -61 -61 -61c-24 0 -39 16 -39 41c0 43 49 81 104 97
c76 63 179 143 179 233c0 66 -39 118 -100 118c-57 0 -86 -37 -86 -63c0 -20 14 -33 40 -39c23 -5 41 -21 41 -46c0 -26 -20 -46 -49 -46c-44 0 -84 35 -84 99c0 70 56 123 159 123c87 0 181 -55 181 -147c0 -63 -50 -105 -94 -130c-32 -18 -82 -48 -127 -89c13 3 31 4 44 4
z" />
    <glyph glyph-name="three" unicode="3" horiz-adv-x="488" 
d="M448 154c0 -106 -118 -164 -233 -164c-113 0 -180 59 -180 126c0 56 34 98 92 98c36 0 61 -23 61 -53c0 -27 -17 -43 -54 -49c-23 -4 -32 -15 -32 -33c0 -20 24 -62 105 -62c86 0 139 58 139 129c0 76 -47 116 -100 116c-20 0 -60 -12 -81 -16s-22 23 -8 26
c103 21 139 58 139 114c0 59 -41 93 -96 93c-44 0 -69 -20 -69 -35c0 -12 7 -17 22 -20c18 -4 35 -18 35 -41s-18 -42 -47 -42c-37 0 -65 29 -65 66c0 52 47 100 141 100c102 0 174 -50 174 -118c0 -44 -31 -80 -70 -101c55 -10 127 -58 127 -134z" />
    <glyph glyph-name="four" unicode="4" horiz-adv-x="485" 
d="M345 139v-113c25 -1 48 -3 48 -3c17 -1 15 -27 -2 -26c0 0 -60 4 -92 4c-33 0 -92 -4 -92 -4c-17 -1 -19 24 -2 26c0 0 22 2 48 3v115c-77 0 -156 -17 -197 -58c-13 -13 -32 -3 -26 12c22 54 42 93 71 147c18 34 38 79 38 116c0 60 -29 77 -29 107c0 24 18 42 40 42
c33 0 50 -29 50 -80c0 -75 -59 -168 -75 -197c-15 -27 -27 -50 -38 -73c27 3 110 11 166 11v176c17 0 34 -1 46 -1c31 0 92 4 92 4c17 1 19 -24 2 -26c0 0 -22 -2 -48 -3v-152c9 -1 23 -1 30 -1c36 0 61 1 92 5c17 2 20 -24 2 -26c-30 -4 -56 -6 -94 -6c-7 0 -21 0 -30 1z
" />
    <glyph glyph-name="five" unicode="5" horiz-adv-x="473" 
d="M202 17c80 0 129 53 129 117c0 69 -54 124 -131 124c-22 0 -56 -7 -84 -18c-11 -4 -22 7 -17 19c38 92 43 136 52 198c4 33 20 50 50 50c31 0 37 -24 50 -45c10 -15 26 -29 56 -29c39 0 76 27 101 57c11 13 32 -4 20 -18c-31 -36 -107 -107 -174 -107c-25 0 -61 7 -85 35
c-5 -30 -18 -86 -34 -125c23 7 49 11 86 11c120 0 212 -65 212 -148c0 -89 -100 -148 -227 -148c-112 0 -171 56 -171 119c0 56 34 98 92 98c36 0 61 -23 61 -53c0 -27 -17 -43 -54 -49c-23 -4 -32 -15 -32 -33c0 -20 20 -55 100 -55z" />
    <glyph glyph-name="six" unicode="6" horiz-adv-x="490" 
d="M450 138c0 -83 -83 -148 -203 -148c-121 0 -207 64 -207 178c0 159 136 293 286 339c18 6 25 -21 9 -26c-96 -30 -154 -122 -181 -225c21 17 56 30 97 30c115 0 199 -65 199 -148zM348 134c0 69 -49 125 -109 125c-56 0 -100 -49 -101 -113c0 -70 44 -129 110 -129
c57 0 100 53 100 117z" />
    <glyph glyph-name="seven" unicode="7" horiz-adv-x="475" 
d="M508 493l-191 -213c-50 -56 -66 -91 -66 -139c0 -41 14 -59 14 -89c0 -36 -25 -62 -55 -62c-36 0 -61 25 -61 69c0 70 58 140 115 203l91 101c-9 -3 -20 -5 -28 -5c-49 0 -83 30 -111 59c-26 27 -41 54 -78 54c-29 0 -47 -19 -47 -42c0 -17 8 -26 16 -36
c7 -8 14 -18 14 -33c0 -23 -19 -42 -42 -42c-33 0 -54 30 -54 69c0 65 66 120 158 120c59 0 85 -12 120 -34c30 -19 48 -32 83 -32c30 0 51 15 67 32l35 38c12 13 32 -5 20 -18z" />
    <glyph glyph-name="eight" unicode="8" horiz-adv-x="476" 
d="M436 145c0 -95 -101 -155 -198 -155c-98 0 -198 58 -198 150c0 57 38 100 91 126c-34 17 -67 57 -67 105c0 86 90 136 174 136c90 0 174 -47 174 -124c0 -45 -29 -78 -71 -100c52 -25 95 -70 95 -138zM355 381c0 61 -51 99 -114 99c-66 0 -101 -33 -101 -78
c0 -38 28 -56 65 -68l63 -20c13 -4 25 -8 37 -14c35 17 50 50 50 81zM354 117c0 59 -41 82 -76 93l-60 19c-18 6 -33 12 -52 20c-46 -20 -69 -63 -69 -106c0 -74 59 -126 138 -126c78 0 119 44 119 100z" />
    <glyph glyph-name="nine" unicode="9" horiz-adv-x="485" 
d="M201 222c-71 0 -166 53 -166 142c0 79 83 143 203 143c121 0 207 -62 207 -177c0 -183 -168 -303 -330 -340c-17 -4 -23 22 -6 26c120 28 238 151 238 318c0 78 -37 146 -107 146c-60 0 -103 -53 -103 -117c0 -62 40 -109 81 -109s60 46 49 97c-4 17 22 23 26 6
c15 -69 -13 -135 -92 -135z" />
    <glyph glyph-name="colon" unicode=":" horiz-adv-x="257" 
d="M70 48c0 32 26 58 58 58s59 -26 59 -58s-27 -58 -59 -58s-58 26 -58 58zM70 254c0 32 26 58 58 58s59 -26 59 -58s-27 -58 -59 -58s-58 26 -58 58z" />
    <glyph glyph-name="semicolon" unicode=";" horiz-adv-x="268" 
d="M218 -11c0 -91 -66 -176 -117 -223c-14 -13 -33 6 -20 21c19 22 64 77 64 128c0 48 -25 64 -45 75c-18 10 -38 24 -38 56c0 33 27 60 60 60c48 0 96 -50 96 -117zM70 254c0 32 26 58 58 58s59 -26 59 -58s-27 -58 -59 -58s-58 26 -58 58z" />
    <glyph glyph-name="less" unicode="&#x3c;" horiz-adv-x="450" 
d="M381 15c14 -12 -1 -32 -16 -22c-81 57 -174 111 -245 140c-26 11 -42 22 -42 46s16 35 42 46c71 29 164 83 245 140c15 10 30 -10 16 -22c-26 -22 -171 -137 -200 -164c29 -27 174 -142 200 -164z" />
    <glyph glyph-name="equal" unicode="=" horiz-adv-x="488" 
d="M289 77h-90c-40 0 -64 -3 -102 -3c-42 0 -42 62 0 62c38 0 62 -3 102 -3h90c40 0 64 3 102 3c42 0 42 -62 0 -62c-38 0 -62 3 -102 3zM289 201h-90c-40 0 -64 -3 -102 -3c-42 0 -42 62 0 62c38 0 62 -3 102 -3h90c40 0 64 3 102 3c42 0 42 -62 0 -62c-38 0 -62 3 -102 3z
" />
    <glyph glyph-name="greater" unicode="&#x3e;" horiz-adv-x="450" 
d="M372 179c0 -24 -16 -35 -42 -46c-71 -29 -164 -83 -245 -140c-15 -10 -30 10 -16 22c26 22 171 137 200 164c-29 27 -174 142 -200 164c-14 12 1 32 16 22c81 -57 174 -111 245 -140c26 -11 42 -22 42 -46z" />
    <glyph glyph-name="question" unicode="?" horiz-adv-x="430" 
d="M247 48c0 -32 -27 -58 -59 -58s-58 26 -58 58s26 58 58 58s59 -26 59 -58zM80 447c0 -20 13 -29 24 -37c14 -10 30 -21 30 -44c0 -22 -17 -41 -43 -41c-36 0 -71 34 -71 90c0 70 60 126 158 126c100 0 188 -59 188 -142c0 -45 -23 -86 -79 -118l-64 -37
c-19 -11 -28 -19 -28 -32c0 -10 4 -17 9 -26c10 -18 -17 -39 -32 -16c-11 17 -29 47 -29 81c0 33 17 56 48 74l36 21c17 10 44 30 44 75c0 41 -33 93 -105 93c-52 0 -86 -33 -86 -67z" />
    <glyph glyph-name="at" unicode="@" horiz-adv-x="722" 
d="M652 188c0 -95 -39 -137 -107 -137c-38 0 -75 12 -93 39c-33 -22 -72 -37 -123 -37c-86 0 -132 39 -132 91c0 50 49 89 124 89c34 0 55 -9 85 -9c24 0 36 16 36 41c0 30 -19 47 -50 47c-24 0 -40 -8 -52 -19c-19 -18 -14 -37 -38 -37c-14 0 -24 9 -24 21
c0 29 55 62 129 62c70 0 121 -27 121 -92v-124c0 -29 14 -44 37 -44c20 0 52 21 52 109c0 137 -112 245 -247 245s-242 -107 -242 -240c0 -127 107 -245 251 -245c53 0 99 15 143 44c15 10 28 -12 14 -22c-40 -27 -92 -53 -166 -53c-155 0 -300 124 -300 276
s145 275 300 275s282 -123 282 -280zM441 174v27c-9 -2 -18 -4 -32 -4c-34 0 -45 7 -66 7c-32 0 -60 -25 -60 -64c0 -35 27 -60 68 -60c43 0 90 39 90 94z" />
    <glyph glyph-name="A" unicode="A" horiz-adv-x="635" 
d="M604 23c17 -2 15 -27 -2 -26c0 0 -59 4 -95 4c-35 0 -95 -4 -95 -4c-17 -1 -19 25 -2 26c0 0 25 2 44 3l-51 161h-141c-18 0 -38 1 -56 2c-33 -104 -82 -199 -175 -199c-18 0 -35 3 -54 12c-16 7 -6 31 10 24c17 -7 30 -9 44 -9c76 0 106 94 129 180
c-66 12 -126 43 -126 85c0 25 17 43 40 43s31 -15 48 -36c14 -18 30 -34 49 -46l8 29c40 144 105 269 253 269c17 0 24 -6 24 -15s-6 -13 -14 -15c-12 -3 -22 -14 -22 -35c0 -14 4 -26 9 -41l71 -222l81 -3c17 -1 15 -27 -2 -26l-71 3l52 -161c18 -1 44 -3 44 -3zM394 214
l-30 95c-9 29 -15 55 -15 86c0 42 14 91 37 115c-104 -19 -140 -166 -158 -239l-12 -48c22 -6 50 -9 80 -9h98z" />
    <glyph glyph-name="B" unicode="B" horiz-adv-x="566" 
d="M516 143c0 -84 -83 -153 -242 -153c-27 0 -76 5 -114 24c-21 -17 -51 -24 -86 -24c-20 0 -42 5 -56 12c-17 8 -4 32 10 25c10 -5 20 -7 29 -7c25 0 38 20 38 47v441c-26 1 -48 3 -48 3c-17 2 -15 27 2 26c0 0 59 -4 93 -4c57 0 85 6 146 6c32 0 71 -7 102 -24
c48 -26 78 -68 78 -113c0 -52 -40 -98 -97 -121c77 -17 145 -57 145 -138zM414 144c0 101 -88 123 -172 123c-18 0 -18 27 0 27c86 0 132 50 132 109c0 34 -17 66 -43 86c-18 14 -43 23 -74 23c-15 0 -48 -3 -67 -5v-422c0 -20 -4 -36 -11 -49c30 -15 71 -19 97 -19
c89 0 138 52 138 127z" />
    <glyph glyph-name="C" unicode="C" horiz-adv-x="526" 
d="M485 126c8 15 32 3 24 -12c-29 -56 -96 -124 -188 -124c-164 0 -271 123 -271 275s112 276 246 276c85 0 127 -54 127 -117c0 -80 -57 -133 -112 -133c-30 0 -54 25 -54 54c0 30 23 50 57 62c29 10 49 27 49 54c0 26 -19 53 -65 53c-96 0 -145 -96 -145 -224
c0 -148 77 -269 184 -269c66 0 123 57 148 105z" />
    <glyph glyph-name="D" unicode="D" horiz-adv-x="614" 
d="M564 266c0 -150 -134 -276 -298 -276c-27 0 -64 5 -104 24c-22 -17 -52 -24 -87 -24c-20 0 -42 5 -56 12c-17 8 -4 32 10 25c10 -5 20 -7 29 -7c25 0 38 20 38 47v441c-26 1 -48 3 -48 3c-17 2 -15 27 2 26c0 0 59 -4 95 -4c58 0 89 6 138 6c63 0 125 -20 176 -61
c66 -53 105 -127 105 -212zM461 252c0 85 -30 155 -74 201c-36 38 -79 59 -130 59c-19 0 -42 -3 -63 -5v-422c0 -20 -4 -36 -12 -49c32 -16 61 -19 86 -19c120 0 193 115 193 235z" />
    <glyph glyph-name="E" unicode="E" horiz-adv-x="499" 
d="M175 404c0 -41 17 -68 35 -84c13 -12 25 -22 25 -41s-11 -28 -25 -41c-29 -27 -49 -52 -49 -98c0 -69 57 -121 130 -121c84 0 142 59 167 107c8 15 32 3 24 -12c-29 -56 -91 -124 -205 -124c-100 0 -227 32 -227 150c0 99 103 120 134 123c16 2 22 7 22 16
c0 10 -6 14 -21 17c-46 10 -113 35 -113 108c0 98 110 137 200 137c103 0 131 -55 131 -97c0 -51 -37 -89 -77 -89c-27 0 -45 19 -45 42s18 38 37 42c21 4 35 16 35 34s-19 40 -67 40c-62 0 -111 -44 -111 -109z" />
    <glyph glyph-name="F" unicode="F" horiz-adv-x="510" 
d="M49 -3c-17 -1 -19 25 -2 26c0 0 22 2 48 3v482c-26 1 -48 3 -48 3c-17 2 -15 27 2 26c0 0 60 -4 94 -4c45 0 82 3 136 3c162 0 229 -54 229 -96c0 -25 -17 -43 -40 -43s-35 19 -48 36c-16 22 -63 76 -175 76c-21 0 -55 -3 -55 -3v-244c20 9 39 12 63 12c13 0 25 -1 37 -3
c-1 34 -3 59 -3 89c0 42 62 42 62 0c0 -38 -3 -62 -3 -102s3 -64 3 -102c0 -42 -62 -42 -62 0c0 33 2 56 3 88c-11 2 -23 3 -37 3c-25 0 -42 -4 -63 -14v-207c26 -1 48 -3 48 -3c17 -2 15 -27 -2 -26c0 0 -60 4 -94 4c-33 0 -93 -4 -93 -4z" />
    <glyph glyph-name="G" unicode="G" horiz-adv-x="690" 
d="M469 -84c-32 -10 -77 -15 -132 -18c-92 -6 -171 -32 -171 -107c0 -64 55 -96 117 -96c121 0 183 114 186 221zM472 202c-36 1 -72 1 -117 1c-69 0 -119 -1 -180 -2c23 -105 92 -183 167 -183c76 0 121 82 130 184zM73 198c-21 0 -41 -1 -61 -1c-17 0 -17 26 0 26
c19 0 36 1 56 1c-1 11 -2 32 -2 41c0 152 112 276 246 276c85 0 127 -54 127 -117c0 -80 -57 -133 -112 -133c-30 0 -54 25 -54 54c0 30 23 50 57 62c29 10 49 27 49 54c0 25 -19 53 -67 53c-95 0 -147 -96 -147 -224c0 -17 1 -40 5 -63c64 2 114 3 185 3
c124 0 245 -5 314 -7c17 -1 17 -26 0 -26c-43 1 -79 2 -115 3v-205c29 27 50 60 61 100c5 18 31 9 26 -8c-15 -52 -44 -94 -87 -128v-10c0 -165 -132 -282 -283 -282c-135 0 -205 55 -205 123c0 83 90 129 267 135c52 2 106 8 136 19v120c-30 -48 -79 -74 -140 -74
c-130 0 -229 89 -256 208z" />
    <glyph glyph-name="H" unicode="H" horiz-adv-x="663" 
d="M425 -3c-17 -1 -19 25 -2 26c0 0 23 2 48 3v228c-61 -21 -158 -32 -216 -32h-15v-196c26 -1 48 -3 48 -3c17 -2 15 -27 -2 -26c0 0 -59 4 -94 4c-32 0 -93 -4 -93 -4c-17 -1 -19 25 -2 26c0 0 23 2 48 3v197c-97 0 -156 34 -156 76c0 25 17 43 40 43s31 -15 48 -36
c10 -14 31 -36 68 -47v249c-26 1 -48 3 -48 3c-17 1 -15 27 2 26c0 0 61 -4 93 -4c35 0 94 4 94 4c17 1 19 -24 2 -26c0 0 -22 -2 -48 -3v-259h15c63 0 159 12 216 34v225c-25 1 -48 3 -48 3c-17 1 -15 27 2 26c0 0 60 -4 94 -4s93 4 93 4c17 1 19 -24 2 -26
c0 0 -22 -2 -48 -3v-482c26 -1 48 -3 48 -3c17 -2 15 -27 -2 -26c0 0 -59 4 -93 4c-35 0 -94 -4 -94 -4z" />
    <glyph glyph-name="I" unicode="I" horiz-adv-x="305" 
d="M185 378c3 12 9 28 13 41c19 54 34 95 34 140c0 37 -16 87 -36 87c-12 0 -9 -12 -13 -25c-6 -21 -24 -32 -44 -32c-31 0 -56 24 -56 52c0 36 34 58 72 58c55 0 104 -62 104 -140c0 -47 -16 -92 -35 -148c-30 -86 -39 -142 -39 -206v-179c26 -1 48 -3 48 -3
c17 -2 15 -27 -2 -26c0 0 -60 4 -91 4c-29 0 -90 -4 -90 -4c-17 -1 -19 25 -2 26c0 0 23 2 48 3v415c0 40 -10 68 -38 68c-18 0 -18 27 0 27c87 0 122 -83 127 -158z" />
    <glyph glyph-name="J" unicode="J" horiz-adv-x="552" 
d="M542 292c17 -1 15 -27 -2 -26c-20 2 -52 3 -83 3c5 -18 10 -44 10 -72c0 -110 -70 -207 -218 -207c-118 0 -170 80 -170 148c0 82 55 130 110 130c16 0 30 -7 40 -18c37 18 77 30 121 36c0 0 -3 7 -4 11c-8 24 -17 60 -17 95c0 44 14 94 38 118c-12 -2 -28 -3 -43 -3
c-18 0 -49 2 -70 2c-103 0 -152 -54 -168 -76c-13 -17 -25 -36 -48 -36s-40 18 -40 43c0 42 67 96 229 96c54 0 66 -2 96 -2c38 0 77 7 92 7s22 -6 22 -15s-6 -13 -14 -15c-12 -3 -22 -14 -22 -35c0 -27 17 -70 29 -109c8 -24 17 -57 21 -71c38 -1 68 -2 91 -4zM375 158
c0 35 -8 70 -17 102c-41 -5 -81 -17 -116 -34c1 -4 1 -8 1 -12c0 -30 -23 -50 -57 -62c-29 -10 -46 -25 -46 -53c0 -49 45 -82 105 -82c75 0 130 62 130 141z" />
    <glyph glyph-name="K" unicode="K" horiz-adv-x="566" 
d="M235 537c17 1 19 -24 2 -26c0 0 -22 -2 -48 -3v-308c19 35 50 69 89 89v73c0 39 3 79 14 111c15 40 43 68 92 68c53 0 82 -32 82 -80c0 -56 -38 -94 -80 -94c-23 0 -42 19 -42 42s17 39 42 43c19 3 31 14 31 31s-14 31 -35 31c-32 0 -53 -21 -64 -51
c-11 -28 -13 -66 -13 -101v-63c18 6 39 9 61 9c52 0 103 -28 103 -88v-153c0 -27 13 -47 38 -47c9 0 19 2 29 7c14 7 27 -17 10 -25c-14 -7 -36 -12 -56 -12c-67 0 -119 27 -119 95v160c0 24 -10 34 -27 34c-13 0 -28 -3 -39 -9v-120c0 -18 -27 -18 -27 0v107
c-41 -29 -80 -97 -90 -171c-10 -70 -42 -96 -110 -96c-23 0 -45 5 -59 12c-17 8 -4 32 10 25c10 -5 20 -7 29 -7c25 0 38 20 38 47v441c-26 1 -48 3 -48 3c-17 1 -15 27 2 26c0 0 60 -4 92 -4c34 0 93 4 93 4z" />
    <glyph glyph-name="L" unicode="L" horiz-adv-x="550" 
d="M159 24c35 -3 79 -7 100 -7c112 0 159 54 175 76c13 17 25 36 48 36s40 -18 40 -43c0 -42 -67 -96 -229 -96c-54 0 -90 3 -138 3c-36 0 -67 -3 -85 -3c-20 0 -42 5 -56 12c-17 8 -4 32 10 25c10 -5 20 -7 29 -7c47 0 96 71 96 145c0 46 -16 94 -29 132
c-9 30 -23 73 -23 110c0 93 82 134 164 134c75 0 137 -61 137 -134c0 -25 -3 -38 -7 -53c-5 -18 -32 -10 -26 8c4 13 6 27 6 45c0 59 -49 107 -110 107c-59 0 -77 -37 -77 -60c0 -26 15 -74 30 -124s30 -104 30 -148c0 -68 -37 -128 -85 -158z" />
    <glyph glyph-name="M" unicode="M" horiz-adv-x="810" 
d="M736 -10c-65 0 -117 27 -117 95v374c0 38 -14 51 -36 51c-55 0 -132 -80 -132 -189v-324c-11 2 -34 4 -46 4c-13 0 -37 -2 -48 -4v462c0 38 -14 51 -36 51c-55 0 -132 -80 -132 -189v-295c26 -1 48 -3 48 -3c17 -2 15 -27 -2 -26c0 0 -59 4 -93 4c-33 0 -93 -4 -93 -4
c-17 -1 -19 25 -2 26c0 0 23 2 48 3v482c-26 1 -48 3 -48 3c-17 2 -15 27 2 26c0 0 61 -4 93 -4c13 0 30 1 47 1v-75c31 39 88 82 154 82c57 0 102 -28 108 -82c31 39 88 82 154 82c73 0 108 -40 108 -104v-370c0 -27 13 -47 38 -47c9 0 19 2 29 7c14 7 27 -17 10 -25
c-14 -7 -36 -12 -54 -12z" />
    <glyph glyph-name="N" unicode="N" horiz-adv-x="600" 
d="M143 1c-34 0 -94 -4 -94 -4c-17 -1 -19 25 -2 26c0 0 23 2 48 3v482c-26 1 -48 3 -48 3c-17 1 -15 27 2 26c0 0 60 -4 93 -4c13 0 31 1 48 1v-75c42 47 99 82 168 82c107 0 168 -87 168 -203c0 -117 -61 -235 -61 -283c0 -20 16 -37 37 -37c11 0 28 4 38 9
c14 7 27 -17 10 -25c-14 -7 -36 -12 -56 -12c-73 0 -102 61 -102 124c0 84 44 155 44 258c0 56 -24 138 -97 138c-66 0 -149 -74 -149 -189v-295c26 -1 48 -3 48 -3c17 -2 15 -27 -2 -26c0 0 -60 4 -93 4z" />
    <glyph glyph-name="O" unicode="O" horiz-adv-x="678" 
d="M628 265c0 -152 -129 -275 -289 -275s-289 123 -289 275s129 276 289 276s289 -124 289 -276zM519 244c0 136 -78 270 -189 270c-105 0 -171 -93 -171 -229c0 -142 81 -268 192 -268c101 0 168 97 168 227z" />
    <glyph glyph-name="P" unicode="P" horiz-adv-x="656" 
d="M294 95c0 -40 19 -78 64 -78c72 0 124 103 124 223c0 13 -2 34 -2 34c-106 -14 -186 -78 -186 -179zM49 -371c-17 -1 -19 25 -2 26c0 0 23 2 48 3v850c-26 1 -48 3 -48 3c-17 1 -15 27 2 26c0 0 61 -4 90 -4c12 0 29 1 46 1v-65c33 44 86 72 147 72
c125 0 231 -101 247 -239c26 0 52 -4 69 -9c18 -5 10 -31 -8 -26c-17 4 -35 7 -59 8v-10c0 -152 -117 -275 -221 -275c-64 0 -107 49 -107 119c0 132 101 182 224 193c-19 120 -99 211 -164 211c-76 0 -128 -92 -128 -230v-625c26 -1 48 -3 48 -3c17 -2 15 -27 -2 -26
c0 0 -61 4 -91 4s-91 -4 -91 -4z" />
    <glyph glyph-name="Q" unicode="Q" horiz-adv-x="664" 
d="M665 83c-13 -33 -51 -93 -117 -93c-5 0 -10 1 -14 2v-334c25 -1 48 -3 48 -3c17 -1 15 -27 -2 -26c0 0 -61 4 -90 4s-90 -4 -90 -4c-17 -1 -19 24 -2 26c0 0 22 2 48 3v405c-28 -46 -76 -73 -142 -73c-143 0 -254 124 -254 275c0 152 111 276 250 276
c60 0 113 -28 146 -72v65c17 0 34 -1 44 -1c29 0 90 4 90 4c17 1 19 -25 2 -26c0 0 -22 -2 -48 -3v-413l32 -32c9 -9 16 -13 27 -13c19 0 38 20 48 43c7 16 30 6 24 -10zM457 236c0 136 -70 277 -169 277c-87 0 -140 -86 -140 -216c0 -135 71 -279 173 -279
c46 0 83 27 106 73l-22 22c-12 12 -24 21 -42 21c-24 0 -46 -23 -53 -44c-6 -17 -31 -10 -26 8c14 51 54 79 114 79c20 0 39 -5 53 -11c4 21 6 45 6 70z" />
    <glyph glyph-name="R" unicode="R" horiz-adv-x="576" 
d="M190 508v-269c131 4 184 61 184 142c0 49 -23 88 -49 108c-18 14 -43 23 -74 23c-15 0 -41 -2 -61 -4zM74 -10c-20 0 -42 5 -56 12c-17 8 -4 32 10 25c10 -5 20 -7 29 -7c25 0 38 20 38 47v441c-26 1 -48 3 -48 3c-17 2 -15 27 2 26c0 0 65 -4 90 -4c48 0 79 6 140 6
c32 0 71 -7 102 -24c48 -26 87 -76 87 -130c0 -58 -37 -94 -72 -116c44 -5 83 -34 83 -86v-116c0 -27 13 -47 38 -47c9 0 19 2 29 7c14 7 27 -17 10 -25c-14 -7 -36 -12 -56 -12c-67 0 -119 27 -119 95v123c0 24 -10 34 -27 34c-22 0 -42 -9 -59 -14
c-36 -10 -73 -15 -105 -16v-127c0 -69 -49 -95 -116 -95z" />
    <glyph glyph-name="S" unicode="S" horiz-adv-x="562" 
d="M415 112c0 45 -36 66 -67 80l-191 84c-43 19 -92 46 -92 113c0 113 140 152 230 152c122 0 162 -61 162 -113c0 -51 -38 -89 -80 -89c-23 0 -42 19 -42 42s18 38 37 42c21 4 32 14 32 31c0 20 -21 60 -107 60c-70 0 -135 -34 -135 -94c0 -47 36 -67 67 -81l190 -84
c43 -19 93 -47 93 -113c0 -105 -125 -152 -229 -152c-116 0 -234 60 -234 147c0 35 28 52 54 52c33 0 46 -25 58 -59c17 -48 40 -113 132 -113c73 0 122 45 122 95z" />
    <glyph glyph-name="T" unicode="T" horiz-adv-x="600" 
d="M617 504c0 -31 -29 -61 -99 -61c-57 0 -112 18 -168 36v-394c0 -68 -52 -95 -119 -95c-20 0 -42 5 -56 12c-17 8 -4 32 10 25c10 -5 20 -7 29 -7c25 0 38 20 38 47v439c-25 5 -53 8 -76 8c-59 0 -93 -28 -93 -55c0 -10 3 -17 3 -28c0 -19 -17 -40 -46 -40s-52 23 -52 52
c0 76 121 98 175 98c133 0 194 -47 281 -47c27 0 63 10 90 29c13 9 29 19 45 19c21 0 38 -16 38 -38z" />
    <glyph glyph-name="U" unicode="U" horiz-adv-x="618" 
d="M529 -10c-65 0 -117 27 -117 95v11c-42 -67 -106 -106 -169 -106c-87 0 -148 39 -148 136v338c0 27 -13 47 -38 47c-9 0 -19 -2 -29 -7c-14 -7 -27 17 -10 25c14 7 36 12 56 12c67 0 119 -27 119 -95v-343c0 -64 30 -82 63 -82c70 0 156 83 156 222v291c17 0 34 -1 47 -1
c32 0 93 4 93 4c17 1 19 -25 2 -26c0 0 -22 -2 -48 -3v-441c0 -27 13 -47 38 -47c9 0 19 2 29 7c14 7 27 -17 10 -25c-14 -7 -33 -12 -54 -12z" />
    <glyph glyph-name="V" unicode="V" horiz-adv-x="540" 
d="M313 91l89 179c18 37 33 75 33 113c0 31 -14 59 -26 80c-16 26 -31 48 -31 74c0 29 22 56 53 56c44 0 70 -43 70 -114c0 -47 -11 -93 -49 -169l-152 -306c-11 -22 -37 -21 -48 0l-257 504c-18 1 -41 3 -41 3c-17 1 -15 27 2 26c0 0 60 -4 95 -4c36 0 95 4 95 4
c17 1 19 -24 2 -26c0 0 -23 -2 -42 -3z" />
    <glyph glyph-name="W" unicode="W" horiz-adv-x="740" 
d="M328 533c33 0 92 4 92 4c17 1 19 -24 2 -26c0 0 -25 -2 -44 -3l157 -405l67 171c16 41 24 75 24 102c0 39 -14 66 -26 87c-16 26 -31 48 -31 74c0 29 22 56 53 56c44 0 70 -43 70 -114c0 -32 -6 -68 -24 -113l-141 -362c-9 -22 -39 -22 -48 0l-108 269l-105 -269
c-9 -22 -39 -22 -48 0l-203 504c-17 1 -41 3 -41 3c-17 1 -15 27 2 26c0 0 60 -4 91 -4c33 0 92 4 92 4c17 1 19 -24 2 -26c0 0 -25 -2 -44 -3l157 -405l81 208l-79 197c-17 1 -41 3 -41 3c-17 1 -15 27 2 26c0 0 60 -4 91 -4z" />
    <glyph glyph-name="X" unicode="X" horiz-adv-x="720" 
d="M325 237c-12 -1 -36 -2 -58 -2c-42 0 -42 62 0 62c21 0 43 -1 57 -2c-11 108 -82 219 -163 219c-39 0 -60 -26 -60 -57c0 -24 14 -39 29 -54s30 -27 30 -47c0 -21 -17 -38 -38 -38c-49 0 -75 57 -75 109c0 54 30 114 114 114c91 0 171 -70 205 -168
c33 98 114 168 206 168c74 0 115 -54 115 -117c0 -80 -57 -133 -112 -133c-30 0 -54 25 -54 54c0 30 23 50 57 62c29 10 49 27 49 58c0 27 -21 49 -55 49c-81 0 -152 -111 -163 -219c16 1 35 2 56 2c42 0 42 -62 0 -62c-21 0 -44 1 -57 2c11 -112 84 -220 172 -220
c34 0 72 17 96 37c15 12 31 -9 18 -20c-30 -24 -71 -44 -122 -44c-91 0 -171 70 -205 168c-34 -98 -114 -168 -206 -168c-72 0 -116 53 -116 116c0 80 57 133 112 133c30 0 54 -25 54 -54c0 -30 -23 -50 -57 -62c-29 -10 -49 -27 -49 -58c0 -27 23 -48 53 -48
c82 0 156 108 167 220z" />
    <glyph glyph-name="Y" unicode="Y" horiz-adv-x="568" 
d="M157 -3c-17 -1 -19 25 -2 26c0 0 23 2 48 3v197l-198 285c-16 1 -39 3 -39 3c-17 1 -15 27 2 26c0 0 60 -4 94 -4c35 0 94 4 94 4c17 1 19 -24 2 -26c0 0 -24 -2 -42 -3l174 -251c6 14 15 31 27 51c91 146 169 233 237 233c28 0 43 -20 43 -41c0 -27 -17 -40 -44 -42
c-98 -7 -152 -63 -212 -164c-13 -22 -42 -69 -42 -150v-118c26 -1 48 -3 48 -3c17 -2 15 -27 -2 -26c0 0 -59 4 -94 4c-34 0 -94 -4 -94 -4z" />
    <glyph glyph-name="Z" unicode="Z" horiz-adv-x="553" 
d="M532 94c-14 -51 -64 -104 -123 -104c-45 0 -72 21 -91 34l-80 57c-21 15 -31 21 -46 21c-23 0 -35 -23 -45 -51c-11 -30 -30 -61 -61 -61c-24 0 -39 16 -39 41c0 43 51 85 123 103l84 103c-20 -1 -38 -2 -62 -2c-42 0 -42 62 0 62c38 0 62 -3 102 -3h6l85 105
c-8 -2 -21 -5 -35 -5c-78 0 -136 94 -201 94c-39 0 -59 -24 -59 -48c0 -17 11 -34 38 -43c21 -7 33 -22 33 -41c0 -23 -19 -43 -42 -43c-37 0 -72 37 -72 87c0 73 64 141 156 141c100 0 122 -61 178 -61c35 0 85 21 122 65c11 13 31 -3 20 -16l-189 -234c21 1 38 2 62 2
c42 0 42 -62 0 -62c-38 0 -62 3 -102 3h-6l-79 -97c17 3 35 4 54 4c45 0 85 -21 109 -39l48 -35c14 -10 22 -13 36 -13c21 0 43 23 50 44c6 17 31 10 26 -8z" />
    <glyph glyph-name="bracketleft" unicode="[" horiz-adv-x="305" 
d="M175 -27c33 -2 72 -5 72 -5c17 -1 15 -27 -2 -26c0 0 -56 4 -91 4c-22 0 -51 -1 -70 -3v646c19 -2 48 -3 70 -3c35 0 91 4 91 4c17 1 19 -25 2 -26c0 0 -39 -3 -72 -5v-586z" />
    <glyph glyph-name="backslash" unicode="\" horiz-adv-x="375" 
d="M395 -155c18 -38 -38 -64 -56 -26c-16 35 -24 58 -41 94l-263 563c-16 37 -29 57 -45 91c-18 39 38 65 56 27c16 -35 23 -58 40 -94l263 -563c17 -37 30 -57 46 -92z" />
    <glyph glyph-name="bracketright" unicode="]" horiz-adv-x="305" 
d="M221 -57c-19 2 -48 3 -70 3c-35 0 -91 -4 -91 -4c-17 -1 -19 25 -2 26c0 0 39 3 72 5v586c-33 2 -72 5 -72 5c-17 1 -15 27 2 26c0 0 56 -4 91 -4c22 0 51 1 70 3v-646z" />
    <glyph glyph-name="asciicircum" unicode="^" horiz-adv-x="448" 
d="M266 506c24 -43 75 -122 146 -192c12 -13 -5 -31 -19 -19c-26 21 -122 107 -169 143c-47 -36 -143 -122 -169 -143c-14 -12 -31 6 -19 19c71 70 122 149 146 192c13 23 24 35 42 35s29 -12 42 -35z" />
    <glyph glyph-name="underscore" unicode="_" horiz-adv-x="600" 
d="M604 -201h-608c-32 0 -32 48 0 48h608c32 0 32 -48 0 -48z" />
    <glyph glyph-name="quoteleft" unicode="&#x2018;" horiz-adv-x="208" 
d="M163 295c0 -27 -22 -49 -51 -49c-35 0 -77 40 -77 96c0 97 96 182 113 196c15 13 34 -9 20 -22c-17 -16 -69 -62 -69 -116c0 -34 20 -50 36 -59c13 -8 28 -19 28 -46z" />
    <glyph glyph-name="a" unicode="a" horiz-adv-x="460" 
d="M428 23c17 -2 15 -27 -2 -26c0 0 -55 4 -91 4c-14 0 -31 -1 -46 -1v31c-20 -24 -55 -41 -116 -41c-89 0 -143 43 -143 95s55 95 138 95c35 0 56 -9 86 -9c24 0 36 16 36 41c0 30 -19 47 -50 47c-24 0 -40 -8 -52 -19c-19 -18 -14 -37 -38 -37c-14 0 -24 9 -24 21
c0 29 55 62 131 62c73 0 123 -27 123 -92v-168c26 -1 48 -3 48 -3zM289 111v37c-9 -2 -18 -4 -32 -4c-34 0 -45 7 -73 7c-35 0 -65 -27 -65 -67c0 -37 26 -67 77 -67c47 0 93 39 93 94z" />
    <glyph glyph-name="b" unicode="b" horiz-adv-x="466" 
d="M214 154c4 -17 -22 -23 -26 -6c-15 69 14 138 97 138c76 0 141 -64 141 -143s-83 -153 -193 -153c-102 0 -178 52 -178 167v318c-26 1 -48 3 -48 3c-17 2 -15 27 2 26c0 0 55 -4 91 -4c14 0 31 1 46 1v-344c0 -80 32 -140 91 -140c57 0 89 57 89 112
c0 64 -29 124 -65 124c-37 0 -58 -48 -47 -99z" />
    <glyph glyph-name="c" unicode="c" horiz-adv-x="416" 
d="M374 83c10 15 32 -1 22 -16c-31 -45 -85 -77 -167 -77c-103 0 -189 65 -189 148s85 148 192 148c67 0 105 -34 105 -82c0 -40 -23 -80 -64 -80c-22 0 -40 18 -40 40s14 32 33 42c11 6 18 13 18 24s-12 29 -52 29c-62 0 -92 -49 -92 -107c0 -76 36 -135 108 -135
c46 0 99 27 126 66z" />
    <glyph glyph-name="d" unicode="d" horiz-adv-x="495" 
d="M463 23c17 -2 15 -27 -2 -26c0 0 -55 4 -91 4c-14 0 -31 -1 -46 -1v22c-25 -21 -56 -32 -92 -32c-107 0 -192 65 -192 148s85 148 192 148c36 0 66 -11 92 -32v221c-26 1 -48 3 -48 3c-17 2 -15 27 2 26c0 0 55 -4 91 -4c14 0 31 1 46 1v-475c26 -1 48 -3 48 -3zM329 129
c0 70 -39 130 -102 130c-56 0 -87 -49 -87 -107c0 -76 37 -135 97 -135c59 0 92 49 92 112z" />
    <glyph glyph-name="e" unicode="e" horiz-adv-x="436" 
d="M40 138c0 83 84 148 191 148c88 0 157 -56 157 -114c0 -36 -23 -53 -61 -53h-151c-18 0 -18 27 0 27h64c29 0 46 15 46 44c0 30 -20 69 -60 69c-55 0 -86 -49 -86 -107c0 -76 36 -135 108 -135c46 0 99 27 126 66c10 15 32 -1 22 -16c-31 -45 -85 -77 -167 -77
c-103 0 -189 65 -189 148z" />
    <glyph glyph-name="f" unicode="f" horiz-adv-x="397" 
d="M271 205c-1 33 -3 55 -3 89c0 42 62 42 62 0c0 -38 -3 -62 -3 -102s3 -64 3 -102c0 -42 -62 -42 -62 0c0 33 2 56 3 88c-7 2 -14 2 -20 2c-24 0 -43 -6 -60 -16v-263c0 -110 -20 -200 -41 -252c-13 -33 -31 -72 -56 -72c-13 0 -25 11 -25 24c0 19 24 34 42 60
c20 29 39 66 39 117c0 74 -47 127 -47 223v101c-11 -5 -25 -6 -34 -6c-20 0 -36 5 -50 11c-18 7 -10 32 8 26c8 -3 16 -5 26 -5c18 0 34 7 50 17v127c0 135 45 282 196 282c74 0 115 -50 115 -103c0 -59 -38 -97 -80 -97c-23 0 -42 19 -42 42s16 37 38 42c20 5 31 17 31 39
c0 25 -21 50 -60 50c-105 0 -110 -131 -110 -255v-77c17 7 36 12 60 12c6 0 14 0 20 -2z" />
    <glyph glyph-name="g" unicode="g" horiz-adv-x="516" 
d="M498 87c-15 -52 -44 -94 -87 -128v-13c0 -159 -103 -279 -248 -279c-107 0 -170 55 -170 123c0 83 79 126 232 135c34 2 74 7 99 16v81c-25 -21 -56 -32 -92 -32c-107 0 -192 65 -192 148s85 148 192 148c36 0 66 -11 92 -32v31c15 0 30 -1 44 -1c36 0 89 4 89 4
c17 1 19 -24 2 -26c0 0 -22 -2 -48 -3v-264c29 27 50 60 61 100c5 18 31 9 26 -8zM329 129c0 70 -39 130 -102 130c-56 0 -87 -49 -87 -107c0 -76 37 -135 97 -135c59 0 92 49 92 112zM324 -87c-25 -8 -57 -12 -95 -15c-76 -6 -136 -41 -136 -108c0 -57 43 -95 91 -95
c95 0 137 112 140 218z" />
    <glyph glyph-name="h" unicode="h" horiz-adv-x="497" 
d="M410 198v-131c0 -27 13 -47 42 -47c9 0 19 2 29 7c14 7 27 -17 10 -25c-14 -7 -36 -12 -56 -12c-66 0 -116 27 -116 95v131c0 24 -10 36 -34 36c-61 0 -118 -69 -118 -150v-76c25 -1 47 -3 47 -3c17 -2 15 -27 -2 -26c0 0 -56 4 -89 4s-89 -4 -89 -4c-17 -1 -19 25 -2 26
c0 0 23 2 48 3v449c-26 1 -48 3 -48 3c-17 2 -15 27 2 26c0 0 55 -4 89 -4c13 0 29 1 44 1v-290c32 44 77 75 141 75c51 0 102 -28 102 -88z" />
    <glyph glyph-name="i" unicode="i" horiz-adv-x="341" 
d="M121 554c30 0 54 -24 54 -54s-24 -54 -54 -54s-54 24 -54 54s24 54 54 54zM211 20c45 0 86 42 86 99c0 18 27 18 27 0c0 -73 -53 -129 -130 -129c-69 0 -119 26 -119 100v169c-25 1 -48 3 -48 3c-17 1 -15 27 2 26c0 0 56 -4 91 -4c36 0 91 4 91 4c17 1 19 -24 2 -26
c0 0 -22 -2 -47 -3v-187c0 -33 12 -52 45 -52z" />
    <glyph glyph-name="j" unicode="j" horiz-adv-x="300" 
d="M132 554c30 0 54 -24 54 -54s-24 -54 -54 -54s-54 24 -54 54s24 54 54 54zM174 39c30 9 60 32 82 60c11 14 31 -4 20 -18c-22 -27 -60 -60 -102 -78v-10c0 -153 -73 -306 -198 -408c-14 -11 -30 11 -16 22c118 94 130 286 130 376v11c-36 10 -63 32 -63 65
c0 22 17 39 39 39c11 0 18 -3 24 -8v169c-25 1 -48 3 -48 3c-17 1 -15 27 2 26c0 0 53 -4 87 -4c35 0 88 4 88 4c17 1 19 -24 2 -26c0 0 -22 -2 -47 -3v-220z" />
    <glyph glyph-name="k" unicode="k" horiz-adv-x="476" 
d="M269 206c-8 0 -14 -2 -21 -6v-67c0 -18 -27 -18 -27 0v50c-35 -30 -60 -81 -60 -132v-25c25 -1 47 -3 47 -3c17 -2 15 -27 -2 -26c0 0 -52 4 -86 4c-33 0 -86 -4 -86 -4c-17 -1 -19 25 -2 26c0 0 23 2 48 3v449c-26 1 -48 3 -48 3c-17 2 -15 27 2 26c0 0 55 -4 89 -4
c12 0 27 1 38 1v-341c16 22 37 44 60 57v72c0 39 3 79 14 111c15 40 43 68 92 68c53 0 82 -32 82 -80c0 -56 -38 -94 -80 -94c-23 0 -42 19 -42 42s17 39 42 43c19 3 31 14 31 31s-14 31 -35 31c-32 0 -53 -21 -64 -51c-11 -28 -13 -66 -13 -101v-61c11 4 26 7 39 7
c45 0 97 -28 97 -88v-80c0 -27 13 -47 42 -47c9 0 19 2 29 7c14 7 27 -17 10 -25c-14 -7 -36 -12 -56 -12c-66 0 -116 27 -116 95v90c0 22 -9 31 -24 31z" />
    <glyph glyph-name="l" unicode="l" horiz-adv-x="336" 
d="M70 475c-26 1 -48 3 -48 3c-17 2 -15 27 2 26c0 0 55 -4 91 -4c14 0 31 1 46 1v-429c0 -33 12 -52 45 -52c45 0 86 42 86 99c0 18 27 18 27 0c0 -73 -53 -129 -130 -129c-69 0 -119 26 -119 100v385z" />
    <glyph glyph-name="m" unicode="m" horiz-adv-x="685" 
d="M486 252c-44 0 -100 -69 -100 -150v-105c-14 3 -30 4 -45 4c-16 0 -32 -1 -46 -4v219c0 22 -4 36 -28 36c-44 0 -100 -69 -100 -150v-76c25 -1 47 -3 47 -3c17 -2 15 -27 -2 -26c0 0 -56 4 -89 4s-89 -4 -89 -4c-17 -1 -19 25 -2 26c0 0 23 2 48 3v233c-26 1 -48 3 -48 3
c-17 2 -15 27 2 26c0 0 55 -4 89 -4c12 0 29 1 44 1v-73c28 44 65 74 119 74c45 0 92 -24 99 -75c28 44 66 75 120 75c48 0 100 -28 100 -88v-173c19 -1 46 -2 46 -2c18 -2 18 -27 0 -27c0 0 -60 4 -92 4c-31 0 -91 -4 -91 -4c-18 0 -18 27 0 27c0 0 27 1 46 2v191
c0 22 -4 36 -28 36z" />
    <glyph glyph-name="n" unicode="n" horiz-adv-x="490" 
d="M410 198v-172c26 -1 48 -3 48 -3c17 -2 15 -27 -2 -26c0 0 -55 4 -91 4c-35 0 -91 -4 -91 -4c-17 -1 -19 25 -2 26c0 0 22 2 47 3v190c0 24 -10 36 -34 36c-61 0 -118 -69 -118 -150v-76c25 -1 47 -3 47 -3c17 -2 15 -27 -2 -26c0 0 -56 4 -89 4c-32 0 -89 -4 -89 -4
c-17 -1 -19 25 -2 26c0 0 23 2 48 3v233c-26 1 -48 3 -48 3c-17 2 -15 27 2 26c0 0 55 -4 89 -4c12 0 29 1 44 1v-74c32 44 78 75 141 75c51 0 102 -28 102 -88z" />
    <glyph glyph-name="o" unicode="o" horiz-adv-x="463" 
d="M423 138c0 -83 -84 -148 -191 -148s-192 65 -192 148s85 148 192 148s191 -65 191 -148zM324 129c0 70 -37 130 -97 130c-56 0 -87 -49 -87 -107c0 -76 37 -135 97 -135c57 0 87 49 87 112z" />
    <glyph glyph-name="p" unicode="p" horiz-adv-x="474" 
d="M434 141c0 -84 -71 -151 -147 -151c-77 0 -106 67 -91 136c4 17 30 11 26 -6c-11 -51 10 -97 43 -97c40 0 68 64 68 121c0 73 -44 115 -89 115c-41 0 -70 -25 -83 -73c-5 -19 -7 -47 -7 -69v-459c25 -1 47 -3 47 -3c17 -2 15 -27 -2 -26c0 0 -56 4 -88 4
c-30 0 -87 -4 -87 -4c-17 -1 -19 25 -2 26c0 0 23 2 48 3v601c-26 1 -48 3 -48 3c-17 2 -15 27 2 26c0 0 55 -4 87 -4c11 0 28 1 43 1v-31c25 20 60 32 111 32c95 0 169 -55 169 -145z" />
    <glyph glyph-name="q" unicode="q" horiz-adv-x="515" 
d="M508 81c-22 -27 -59 -60 -102 -78v-345c25 -1 47 -3 47 -3c17 -2 15 -27 -2 -26c0 0 -53 4 -86 4s-87 -4 -87 -4c-17 -1 -19 25 -2 26c0 0 23 2 48 3v335c-10 2 -19 6 -28 11c-17 -9 -42 -14 -64 -14c-107 0 -192 65 -192 148s85 148 192 148c36 0 67 -11 92 -32v31
c15 0 30 -1 42 -1c34 0 86 4 86 4c17 1 19 -24 2 -26c0 0 -22 -2 -48 -3v-220c30 9 60 32 82 60c11 14 31 -4 20 -18zM333 129c0 70 -38 130 -104 130c-58 0 -89 -49 -89 -107c0 -76 37 -135 99 -135c13 0 25 2 35 6c-8 10 -13 23 -13 36c0 22 17 39 39 39
c12 0 20 -3 27 -12c4 13 6 28 6 43z" />
    <glyph glyph-name="r" unicode="r" horiz-adv-x="432" 
d="M399 204c0 -57 -49 -93 -84 -93c-29 0 -47 19 -47 42s15 40 41 41c20 1 38 11 38 33c0 20 -19 32 -47 32c-75 0 -133 -76 -133 -157v-76c25 -1 47 -3 47 -3c17 -2 15 -27 -2 -26c0 0 -56 4 -89 4c-32 0 -89 -4 -89 -4c-17 -1 -19 25 -2 26c0 0 23 2 48 3v233
c-26 1 -48 3 -48 3c-17 2 -15 27 2 26c0 0 55 -4 89 -4c12 0 29 1 44 1v-73c32 43 78 74 137 74c57 0 95 -32 95 -82z" />
    <glyph glyph-name="s" unicode="s" horiz-adv-x="410" 
d="M203 -10c-89 0 -170 24 -170 75c0 24 17 37 40 37c32 0 38 -28 57 -52c14 -17 35 -33 81 -33c44 0 83 14 83 42c0 26 -31 34 -62 42l-77 19c-47 12 -106 27 -106 81c0 62 70 85 156 85c47 0 84 -10 109 -25c1 15 2 28 2 28c1 17 27 15 26 -2c0 0 -2 -28 -2 -43
c0 -18 2 -43 2 -43c1 -17 -23 -19 -26 -2s-23 60 -110 60c-45 0 -78 -12 -78 -37c0 -23 26 -29 52 -36l84 -21c47 -12 106 -27 106 -81c0 -64 -80 -94 -167 -94z" />
    <glyph glyph-name="t" unicode="t" horiz-adv-x="336" 
d="M206 20c45 0 86 42 86 99c0 18 27 18 27 0c0 -73 -53 -129 -130 -129c-69 0 -119 26 -119 100v222l-91 7c-17 1 -15 27 2 26l54 -4c49 -4 74 32 77 76c1 15 10 24 24 24s25 -10 25 -24v-81h24c86 0 134 2 220 9c17 1 19 -25 2 -26c-86 -7 -135 -10 -222 -10h-24v-237
c0 -33 12 -52 45 -52z" />
    <glyph glyph-name="u" unicode="u" horiz-adv-x="486" 
d="M319 181v78c-26 1 -48 3 -48 3c-17 2 -15 27 2 26c0 0 55 -4 89 -4c12 0 29 1 44 1v-259c26 -1 48 -3 48 -3c17 -2 15 -27 -2 -26c0 0 -56 4 -89 4c-13 0 -29 -1 -44 -1v69c-25 -43 -60 -79 -124 -79c-67 0 -120 25 -120 103v166c-26 1 -48 3 -48 3c-17 2 -15 27 2 26
c0 0 55 -4 91 -4c14 0 31 1 46 1v-211c0 -43 20 -55 46 -55c58 0 107 82 107 162z" />
    <glyph glyph-name="v" unicode="v" horiz-adv-x="414" 
d="M328 131c-37 -62 -121 -129 -184 -162c-15 -8 -27 16 -12 24c11 6 19 15 19 30s-13 42 -31 76l-86 160l-42 3c-17 2 -15 27 2 26c0 0 55 -4 91 -4c35 0 91 4 91 4c17 1 19 -25 2 -26c0 0 -30 -2 -43 -3l98 -194c22 16 53 50 71 80c18 29 23 56 23 74c0 21 -9 39 -18 55
c-12 20 -24 37 -24 57c0 22 17 43 41 43c34 0 54 -33 54 -84c0 -55 -19 -105 -52 -159z" />
    <glyph glyph-name="w" unicode="w" horiz-adv-x="579" 
d="M418 5c-11 -20 -37 -20 -47 0l-80 158l-83 -158c-10 -20 -36 -20 -46 0l-129 254c-17 1 -41 3 -41 3c-17 2 -15 27 2 26c0 0 55 -4 91 -4c35 0 91 4 91 4c17 1 19 -25 2 -26c0 0 -21 -2 -44 -3l84 -178l92 177c-37 1 -76 4 -76 4c-17 2 -15 27 2 26c0 0 55 -4 91 -4
c35 0 91 4 91 4c17 1 19 -25 2 -26c0 0 -39 -4 -77 -4l84 -177l63 118c6 11 10 23 10 34c0 15 -5 28 -13 41c-12 20 -24 37 -24 57c0 22 17 43 41 43c34 0 54 -33 54 -72c0 -25 -9 -49 -20 -69z" />
    <glyph glyph-name="x" unicode="x" horiz-adv-x="480" 
d="M468 2c-14 -7 -34 -12 -62 -12c-45 0 -90 14 -127 51l-63 63l-77 -77c33 -1 69 -4 69 -4c17 -2 15 -27 -2 -26c0 0 -55 4 -91 4c-35 0 -91 -4 -91 -4c-17 -1 -19 25 -2 26c0 0 54 4 78 5l96 96l-133 135c-20 1 -41 3 -41 3c-17 1 -15 27 2 26c0 0 56 -4 91 -4
c36 0 91 4 91 4c17 1 19 -24 2 -26c0 0 -20 -2 -33 -3l77 -79l78 78c-32 1 -69 4 -69 4c-17 1 -15 27 2 26c0 0 56 -4 91 -4c36 0 91 4 91 4c17 1 19 -24 2 -26c0 0 -52 -4 -78 -5l-97 -97l120 -122c15 -15 24 -18 37 -18c9 0 19 2 29 7c14 7 27 -17 10 -25z" />
    <glyph glyph-name="y" unicode="y" horiz-adv-x="463" 
d="M104 -333c-74 0 -112 41 -112 89c0 40 24 73 61 73c24 0 44 -14 44 -39c0 -17 -11 -26 -22 -34c-14 -10 -27 -17 -27 -33s19 -29 60 -29c139 0 196 192 196 337v34c-31 -44 -71 -75 -117 -75c-57 0 -102 26 -102 98v128c0 27 -13 47 -42 47c-9 0 -19 -2 -29 -7
c-14 -7 -27 17 -10 25c14 7 36 12 56 12c66 0 116 -27 116 -95v-134c0 -29 9 -40 29 -40c38 0 99 69 99 150v85c-26 1 -48 3 -48 3c-17 2 -15 27 2 26c0 0 54 -4 90 -4c14 0 30 1 45 1v-224c0 -45 -3 -77 -10 -108c-34 -152 -143 -286 -279 -286z" />
    <glyph glyph-name="z" unicode="z" horiz-adv-x="377" 
d="M117 8c-17 14 -27 33 -27 51c0 22 17 39 39 39s30 -13 38 -27c17 22 71 92 97 129c-26 -1 -55 -2 -82 -2c-38 0 -82 2 -110 4c-1 -27 -3 -51 -3 -51c-2 -17 -27 -15 -26 2c0 0 4 55 4 91c0 13 -1 29 -1 44c0 0 98 -5 136 -5c58 0 134 5 149 5c13 0 17 -13 11 -21
c-63 -94 -94 -138 -160 -219c8 -7 18 -12 34 -12c38 0 77 28 105 63c11 14 31 -4 20 -18c-32 -39 -97 -91 -163 -91c-14 0 -27 2 -38 6c-24 -29 -46 -55 -54 -63c43 0 58 -19 93 -54c26 -25 49 -45 78 -45c25 0 49 18 56 39c6 17 31 10 26 -8c-14 -51 -63 -91 -121 -91
c-57 0 -87 22 -114 49s-40 48 -60 48c-17 0 -29 -12 -46 -29c-13 -13 -33 7 -20 20c46 44 101 101 139 146z" />
    <glyph glyph-name="braceleft" unicode="{" horiz-adv-x="330" 
d="M281 -46c-14 -7 -36 -12 -56 -12c-66 0 -116 27 -116 95v150c0 38 -18 66 -58 66c-19 0 -19 27 0 27c40 0 58 28 58 65v150c0 68 50 95 116 95c20 0 42 -5 56 -12c17 -8 4 -32 -10 -25c-10 5 -20 7 -29 7c-29 0 -42 -20 -42 -47v-127c0 -64 -32 -102 -81 -120
c49 -18 81 -56 81 -120v-127c0 -27 13 -47 42 -47c9 0 19 2 29 7c14 7 27 -17 10 -25z" />
    <glyph glyph-name="bar" unicode="|" horiz-adv-x="256" 
d="M156 479v-546c0 -40 3 -64 3 -102c0 -42 -62 -42 -62 0c0 38 3 62 3 102v546c0 40 -3 64 -3 102c0 42 62 42 62 0c0 -38 -3 -62 -3 -102z" />
    <glyph glyph-name="braceright" unicode="}" horiz-adv-x="330" 
d="M221 187v-150c0 -68 -50 -95 -116 -95c-20 0 -42 5 -56 12c-17 8 -4 32 10 25c10 -5 20 -7 29 -7c29 0 42 20 42 47v127c0 64 32 102 81 120c-49 18 -81 56 -81 120v127c0 27 -13 47 -42 47c-9 0 -19 -2 -29 -7c-14 -7 -27 17 -10 25c14 7 36 12 56 12
c66 0 116 -27 116 -95v-150c0 -37 18 -65 58 -65c19 0 19 -27 0 -27c-40 0 -58 -28 -58 -66z" />
    <glyph glyph-name="asciitilde" unicode="~" horiz-adv-x="516" 
d="M164 197c-15 6 -21 9 -31 9c-24 0 -42 -22 -42 -54c0 -18 -27 -18 -27 0c0 61 37 119 95 119c16 0 25 -2 42 -9l151 -60c15 -6 21 -9 31 -9c24 0 42 22 42 54c0 18 27 18 27 0c0 -61 -37 -119 -95 -119c-16 0 -25 2 -42 9z" />
    <glyph glyph-name="exclamdown" unicode="&#xa1;" horiz-adv-x="281" 
d="M200 228c0 -32 -27 -59 -59 -59s-59 27 -59 59s27 58 59 58s59 -26 59 -58zM201 -205c0 -33 -28 -60 -60 -60c-33 0 -61 27 -61 60c0 54 41 147 41 301c0 28 39 28 39 0c0 -154 41 -247 41 -301z" />
    <glyph glyph-name="cent" unicode="&#xa2;" horiz-adv-x="470" 
d="M416 67c-30 -44 -83 -76 -162 -77v-122c0 -18 -27 -18 -27 0v123c-93 8 -167 70 -167 147c0 74 67 134 167 146v124c0 18 27 18 27 0v-122c88 0 137 -40 137 -95c0 -40 -23 -72 -59 -72c-25 0 -43 18 -43 40s15 32 30 40c10 5 17 12 17 22c0 19 -21 38 -82 38v-241
c5 -1 9 -1 14 -1c46 0 99 27 126 66c10 15 32 -1 22 -16zM227 25v229c-47 -13 -67 -54 -67 -102c0 -60 22 -109 67 -127z" />
    <glyph glyph-name="sterling" unicode="&#xa3;" horiz-adv-x="571" 
d="M299 507c86 0 149 -46 149 -114c0 -35 -18 -63 -50 -63c-22 0 -42 19 -42 40c0 13 4 23 9 31c6 10 12 19 12 32c0 25 -27 47 -79 47c-68 0 -84 -35 -84 -60c0 -30 15 -77 23 -104c5 -16 12 -40 17 -66h125c18 0 18 -27 0 -27h-120c3 -14 4 -28 4 -41
c0 -68 -37 -128 -85 -158c35 -3 79 -7 100 -7c112 0 159 54 175 76c13 17 25 36 48 36s40 -18 40 -43c0 -42 -67 -96 -229 -96c-54 0 -90 3 -138 3c-36 0 -67 -3 -85 -3c-20 0 -42 5 -56 12c-17 8 -4 32 10 25c10 -5 20 -7 29 -7c47 0 96 71 96 145c0 21 -3 40 -7 58h-117
c-18 0 -18 27 0 27h110c-3 10 -7 21 -10 32c-8 25 -18 59 -18 91c0 93 81 134 173 134z" />
    <glyph glyph-name="fraction" unicode="&#x2044;" horiz-adv-x="510" 
d="M49 -3c-17 -1 -19 25 -2 26c0 0 22 2 48 3v482c-26 1 -48 3 -48 3c-17 2 -15 27 2 26c0 0 60 -4 94 -4c45 0 82 3 136 3c162 0 229 -54 229 -96c0 -25 -17 -43 -40 -43s-35 19 -48 36c-16 22 -63 76 -175 76c-21 0 -55 -3 -55 -3v-244c20 9 39 12 63 12c13 0 25 -1 37 -3
c-1 34 -3 59 -3 89c0 42 62 42 62 0c0 -38 -3 -62 -3 -102s3 -64 3 -102c0 -42 -62 -42 -62 0c0 33 2 56 3 88c-11 2 -23 3 -37 3c-25 0 -42 -4 -63 -14v-207c26 -1 48 -3 48 -3c17 -2 15 -27 -2 -26c0 0 -60 4 -94 4c-33 0 -93 -4 -93 -4z" />
    <glyph glyph-name="yen" unicode="&#xa5;" horiz-adv-x="580" 
d="M538 424c-98 -7 -151 -65 -191 -134h118c18 0 18 -27 0 -27h-127c-7 -20 -11 -42 -12 -54h139c18 0 18 -27 0 -27h-141c-1 -12 -1 -24 -1 -38v-118c26 -1 48 -3 48 -3c17 -2 15 -27 -2 -26c0 0 -58 4 -92 4c-33 0 -92 -4 -92 -4c-17 -1 -19 25 -2 26c0 0 23 2 48 3v156
h-142c-18 0 -18 27 0 27h142v54h-142c-18 0 -18 27 0 27h122l-154 185c-20 1 -36 2 -36 2c-17 1 -15 27 2 26c0 0 62 -4 89 -4c32 0 91 4 91 4c17 1 19 -24 2 -26c0 0 -16 -1 -37 -3l150 -179c73 124 153 212 221 212c28 0 43 -20 43 -41c0 -27 -17 -40 -44 -42z" />
    <glyph glyph-name="florin" unicode="&#x192;" horiz-adv-x="450" 
d="M67 -257l54 437h-61c-18 0 -18 27 0 27h64l7 55c27 219 117 292 211 292c78 0 97 -58 97 -86c0 -33 -20 -62 -50 -62c-24 0 -41 20 -41 41c0 24 18 32 18 54c0 14 -13 26 -35 26c-51 0 -81 -37 -89 -101l-27 -219h139c18 0 18 -27 0 -27h-142l-32 -263
c-25 -203 -103 -284 -185 -284c-62 0 -103 38 -103 87c0 33 19 61 50 61c25 0 41 -19 41 -40c0 -24 -18 -32 -18 -54c0 -14 13 -27 35 -27c34 0 60 29 67 83z" />
    <glyph glyph-name="section" unicode="&#xa7;" horiz-adv-x="505" 
d="M445 147c0 -41 -25 -78 -64 -93c17 -15 29 -41 29 -69c0 -71 -73 -116 -163 -116c-77 0 -153 31 -153 106c0 37 20 65 51 65c27 0 39 -19 39 -37c0 -25 -16 -32 -16 -56c0 -28 29 -52 75 -52c50 0 84 26 84 63c0 27 -18 44 -42 61l-163 113c-50 35 -62 65 -62 97
c0 41 25 78 64 93c-17 15 -29 41 -29 69c0 71 73 116 163 116c77 0 153 -31 153 -106c0 -37 -20 -65 -51 -65c-27 0 -39 19 -39 37c0 25 16 32 16 56c0 28 -29 52 -75 52c-50 0 -84 -26 -84 -63c0 -27 18 -44 42 -61l163 -113c50 -35 62 -65 62 -97zM390 115
c0 18 -9 28 -30 42l-213 147c-23 -7 -32 -27 -32 -43c0 -18 9 -28 30 -42l213 -147c23 7 32 27 32 43z" />
    <glyph glyph-name="currency" unicode="&#xa4;" horiz-adv-x="640" 
d="M226 209h201c18 0 18 -27 0 -27h-196c24 -90 87 -163 176 -163c77 0 136 59 161 107c8 15 32 3 24 -12c-29 -56 -92 -124 -199 -124c-132 0 -238 81 -268 192h-71c-18 0 -18 27 0 27h65c-2 14 -4 36 -2 54h-63c-18 0 -18 27 0 27h66c20 123 131 217 269 217
c85 0 148 -46 148 -114c0 -35 -18 -63 -50 -63c-22 0 -42 19 -42 40c0 13 4 23 9 31c6 10 12 19 12 32c0 25 -27 47 -79 47c-99 0 -159 -80 -165 -190h235c18 0 18 -27 0 -27h-236c0 -18 2 -43 5 -54z" />
    <glyph glyph-name="quotesingle" unicode="'" horiz-adv-x="183" 
d="M40 490c0 28 24 51 51 51c28 0 52 -23 52 -51c0 -45 -34 -124 -34 -228c0 -23 -35 -23 -35 0c0 104 -34 183 -34 228z" />
    <glyph glyph-name="quotedblleft" unicode="&#x201c;" horiz-adv-x="380" 
d="M163 295c0 -27 -22 -49 -51 -49c-35 0 -77 40 -77 96c0 97 96 182 113 196c15 13 34 -9 20 -22c-17 -16 -69 -62 -69 -116c0 -34 20 -50 36 -59c13 -8 28 -19 28 -46zM335 295c0 -27 -22 -49 -51 -49c-35 0 -77 40 -77 96c0 97 96 182 113 196c15 13 34 -9 20 -22
c-17 -16 -69 -62 -69 -116c0 -34 20 -50 36 -59c13 -8 28 -19 28 -46z" />
    <glyph glyph-name="guillemotleft" unicode="&#xab;" horiz-adv-x="450" 
d="M212 281c12 13 32 -4 20 -19c-30 -37 -77 -100 -89 -124c12 -24 59 -87 89 -124c12 -15 -8 -32 -20 -19c-55 59 -117 96 -131 106c-12 8 -23 19 -23 37s11 29 23 37c14 10 76 47 131 106zM368 281c12 13 32 -4 20 -19c-30 -37 -77 -100 -89 -124c12 -24 59 -87 89 -124
c12 -15 -8 -32 -20 -19c-55 59 -117 96 -131 106c-12 8 -23 19 -23 37s11 29 23 37c14 10 76 47 131 106z" />
    <glyph glyph-name="guilsinglleft" unicode="&#x2039;" horiz-adv-x="294" 
d="M212 281c12 13 32 -4 20 -19c-30 -37 -77 -100 -89 -124c12 -24 59 -87 89 -124c12 -15 -8 -32 -20 -19c-55 59 -117 96 -131 106c-12 8 -23 19 -23 37s11 29 23 37c14 10 76 47 131 106z" />
    <glyph glyph-name="guilsinglright" unicode="&#x203a;" horiz-adv-x="294" 
d="M236 138c0 -18 -11 -29 -23 -37c-14 -10 -76 -47 -131 -106c-12 -13 -32 4 -20 19c30 37 77 100 89 124c-12 24 -59 87 -89 124c-12 15 8 32 20 19c55 -59 117 -96 131 -106c12 -8 23 -19 23 -37z" />
    <glyph glyph-name="fi" unicode="&#xfb01;" horiz-adv-x="701" 
d="M531 420c0 -34 -25 -58 -54 -58c-45 0 -58 39 -64 80c-6 40 -23 85 -93 85c-125 0 -129 -131 -129 -255v-77c17 7 36 12 60 12c6 0 14 0 20 -2c-1 33 -3 55 -3 89c0 42 62 42 62 0c0 -38 -3 -62 -3 -102s3 -64 3 -102c0 -42 -62 -42 -62 0c0 33 2 56 3 88
c-7 2 -14 2 -20 2c-24 0 -43 -6 -60 -16v-263c0 -110 -20 -200 -41 -252c-13 -33 -31 -72 -56 -72c-13 0 -25 11 -25 24c0 19 24 34 42 60c20 29 39 66 39 117c0 74 -47 127 -47 223v101c-11 -5 -25 -6 -34 -6c-20 0 -36 5 -50 11c-18 7 -10 32 8 26c8 -3 16 -5 26 -5
c18 0 34 7 50 17v127c0 140 43 282 226 282c138 0 202 -83 202 -134zM435 285c15 0 32 -1 45 -1c36 0 91 4 91 4c17 1 19 -24 2 -26c0 0 -22 -2 -47 -3v-187c0 -33 12 -52 45 -52c45 0 86 42 86 99c0 18 27 18 27 0c0 -73 -53 -129 -130 -129c-69 0 -119 26 -119 100v195z
" />
    <glyph glyph-name="fl" unicode="&#xfb02;" horiz-adv-x="696" 
d="M521 378v-306c0 -33 12 -52 45 -52c45 0 86 42 86 99c0 18 27 18 27 0c0 -73 -53 -129 -127 -129c-66 0 -116 26 -116 100v306c0 20 -7 36 -23 43c-4 -52 -40 -85 -79 -85c-23 0 -42 19 -42 42s16 37 38 42c20 5 31 17 31 39c0 25 -21 50 -60 50
c-105 0 -110 -131 -110 -255v-77c17 7 36 12 60 12c6 0 14 0 20 -2c-1 33 -3 55 -3 89c0 42 62 42 62 0c0 -38 -3 -62 -3 -102s3 -64 3 -102c0 -42 -62 -42 -62 0c0 33 2 56 3 88c-7 2 -14 2 -20 2c-24 0 -43 -6 -60 -16v-263c0 -110 -20 -200 -41 -252
c-13 -33 -31 -72 -56 -72c-13 0 -25 11 -25 24c0 19 24 34 42 60c20 29 39 66 39 117c0 74 -47 127 -47 223v101c-11 -5 -25 -6 -34 -6c-20 0 -36 5 -50 11c-18 7 -10 32 8 26c8 -3 16 -5 26 -5c18 0 34 7 50 17v127c0 135 45 282 196 282c64 0 103 -37 112 -81
c59 0 110 -27 110 -95z" />
    <glyph glyph-name="endash" unicode="&#x2013;" horiz-adv-x="562" 
d="M369 139h-176c-40 0 -64 -3 -102 -3c-42 0 -42 62 0 62c38 0 62 -3 102 -3h176c40 0 64 3 102 3c42 0 42 -62 0 -62c-38 0 -62 3 -102 3z" />
    <glyph glyph-name="dagger" unicode="&#x2020;" horiz-adv-x="493" 
d="M229 304c-86 -6 -107 -28 -138 -28c-22 0 -41 20 -41 41c0 23 19 42 41 42c31 0 52 -22 135 -27c-11 72 -28 131 -28 161c0 27 22 48 48 48c27 0 49 -21 49 -48c0 -31 -17 -89 -28 -161c83 6 104 27 135 27c22 0 41 -19 41 -42c0 -21 -19 -41 -41 -41
c-31 0 -52 22 -138 28c-2 -19 -3 -38 -4 -58c20 -6 35 -24 35 -46c0 -43 -35 -142 -35 -258v-93c0 -21 -27 -21 -27 0v93c0 116 -35 215 -35 258c0 22 15 40 35 46c0 20 -2 39 -4 58z" />
    <glyph glyph-name="daggerdbl" unicode="&#x2021;" horiz-adv-x="493" 
d="M233 154c-21 5 -35 24 -35 46s14 41 35 46c0 20 -1 39 -4 58c-86 -6 -107 -28 -138 -28c-22 0 -41 20 -41 41c0 23 19 42 41 42c31 0 52 -22 135 -27c-11 72 -28 131 -28 161c0 27 22 48 48 48c27 0 49 -21 49 -48c0 -30 -17 -89 -28 -161c83 6 104 27 135 27
c22 0 41 -19 41 -42c0 -21 -19 -41 -41 -41c-31 0 -52 22 -138 28c-3 -19 -4 -38 -4 -58c20 -6 35 -24 35 -46s-15 -40 -35 -46c0 -20 1 -39 4 -57c86 6 107 28 138 28c22 0 41 -20 41 -41c0 -23 -19 -42 -41 -42c-31 0 -52 22 -135 27c11 -72 28 -131 28 -161
c0 -27 -22 -48 -49 -48c-26 0 -48 21 -48 48c0 30 17 89 28 161c-83 -6 -104 -27 -135 -27c-22 0 -41 19 -41 42c0 21 19 41 41 41c31 0 52 -22 138 -28c2 18 4 37 4 57z" />
    <glyph glyph-name="periodcentered" unicode="&#xb7;" horiz-adv-x="237" 
d="M60 167c0 32 26 58 58 58s59 -26 59 -58s-27 -58 -59 -58s-58 26 -58 58z" />
    <glyph glyph-name="paragraph" unicode="&#xb6;" horiz-adv-x="520" 
d="M463 512c-16 -8 -29 -13 -43 -16v-488c0 -24 -35 -24 -35 0v482c-23 -3 -40 1 -54 3v-259c0 -157 -80 -321 -205 -423c-14 -11 -30 11 -16 22c118 94 130 286 130 376v54c-9 -4 -20 -8 -37 -8c-79 0 -143 64 -143 143s60 143 159 143c39 0 65 -8 86 -14
c23 -7 40 -10 62 -10c31 0 60 7 84 19c16 8 28 -16 12 -24z" />
    <glyph glyph-name="bullet" unicode="&#x2022;" horiz-adv-x="561" 
d="M100 255c0 100 80 180 180 180s181 -80 181 -180s-81 -180 -181 -180s-180 80 -180 180z" />
    <glyph glyph-name="quotesinglbase" unicode="&#x201a;" horiz-adv-x="208" 
d="M35 28c0 27 22 49 51 49c35 0 77 -40 77 -96c0 -97 -96 -182 -113 -196c-15 -13 -34 9 -20 22c17 16 69 62 69 116c0 34 -20 50 -36 59c-13 8 -28 19 -28 46z" />
    <glyph glyph-name="quotedblbase" unicode="&#x201e;" horiz-adv-x="380" 
d="M207 28c0 27 22 49 51 49c35 0 77 -40 77 -96c0 -97 -96 -182 -113 -196c-15 -13 -34 9 -20 22c17 16 69 62 69 116c0 34 -20 50 -36 59c-13 8 -28 19 -28 46zM35 28c0 27 22 49 51 49c35 0 77 -40 77 -96c0 -97 -96 -182 -113 -196c-15 -13 -34 9 -20 22
c17 16 69 62 69 116c0 34 -20 50 -36 59c-13 8 -28 19 -28 46z" />
    <glyph glyph-name="quotedblright" unicode="&#x201d;" horiz-adv-x="380" 
d="M207 492c0 27 22 49 51 49c35 0 77 -40 77 -96c0 -97 -96 -182 -113 -196c-15 -13 -34 9 -20 22c17 16 69 62 69 116c0 34 -20 50 -36 59c-13 8 -28 19 -28 46zM35 492c0 27 22 49 51 49c35 0 77 -40 77 -96c0 -97 -96 -182 -113 -196c-15 -13 -34 9 -20 22
c17 16 69 62 69 116c0 34 -20 50 -36 59c-13 8 -28 19 -28 46z" />
    <glyph glyph-name="guillemotright" unicode="&#xbb;" horiz-adv-x="450" 
d="M392 138c0 -18 -11 -29 -23 -37c-14 -10 -76 -47 -131 -106c-12 -13 -32 4 -20 19c30 37 77 100 89 124c-12 24 -59 87 -89 124c-12 15 8 32 20 19c55 -59 117 -96 131 -106c12 -8 23 -19 23 -37zM236 138c0 -18 -11 -29 -23 -37c-14 -10 -76 -47 -131 -106
c-12 -13 -32 4 -20 19c30 37 77 100 89 124c-12 24 -59 87 -89 124c-12 15 8 32 20 19c55 -59 117 -96 131 -106c12 -8 23 -19 23 -37z" />
    <glyph glyph-name="ellipsis" unicode="&#x2026;" horiz-adv-x="651" 
d="M601 48c0 -32 -27 -58 -59 -58s-58 26 -58 58s26 58 58 58s59 -26 59 -58zM384 48c0 -32 -27 -58 -59 -58s-58 26 -58 58s26 58 58 58s59 -26 59 -58zM167 48c0 -32 -27 -58 -59 -58s-58 26 -58 58s26 58 58 58s59 -26 59 -58z" />
    <glyph glyph-name="perthousand" unicode="&#x2030;" horiz-adv-x="925" 
d="M885 105c0 -64 -56 -115 -126 -115s-126 51 -126 115s56 116 126 116s126 -52 126 -116zM584 105c0 -64 -56 -115 -126 -115s-126 51 -126 115s56 116 126 116s126 -52 126 -116zM555 502l-450 -536c-20 -24 -56 6 -36 30l369 439c-17 -6 -40 -10 -61 -10
c-45 0 -77 15 -104 27c12 -18 19 -39 19 -61c0 -64 -56 -115 -126 -115s-126 51 -126 115s56 116 126 116c49 0 82 -14 115 -29c28 -13 55 -26 96 -26c55 0 96 24 142 80c20 24 56 -6 36 -30zM814 89c0 55 -24 105 -61 105c-31 0 -49 -30 -49 -73c0 -56 24 -104 61 -104
c31 0 49 30 49 72zM513 89c0 55 -24 105 -61 105c-31 0 -49 -30 -49 -73c0 -56 24 -104 61 -104c31 0 49 30 49 72zM221 375c0 55 -24 105 -61 105c-31 0 -49 -30 -49 -73c0 -56 24 -104 61 -104c31 0 49 30 49 72z" />
    <glyph glyph-name="questiondown" unicode="&#xbf;" horiz-adv-x="430" 
d="M300 228c0 -32 -26 -58 -58 -58s-59 26 -59 58s27 58 59 58s58 -26 58 -58zM410 -139c0 -70 -60 -126 -158 -126c-100 0 -188 59 -188 142c0 45 23 86 79 118l64 37c19 11 28 19 28 32c0 10 -4 17 -9 26c-10 18 17 39 32 16c11 -17 29 -47 29 -81c0 -33 -17 -56 -48 -74
l-36 -21c-17 -10 -44 -30 -44 -75c0 -41 33 -93 105 -93c52 0 86 33 86 67c0 20 -13 29 -24 37c-14 10 -30 21 -30 44c0 22 17 41 43 41c36 0 71 -34 71 -90z" />
    <glyph glyph-name="grave" unicode="`" horiz-adv-x="264" 
d="M49 470c-18 15 -20 40 -5 58c15 17 41 20 58 6c14 -12 66 -92 123 -140c14 -12 -3 -32 -17 -21c-57 48 -145 85 -159 97z" />
    <glyph glyph-name="acute" unicode="&#xb4;" horiz-adv-x="264" 
d="M162 533c18 15 43 12 58 -5c15 -18 13 -44 -4 -59c-14 -11 -102 -48 -159 -97c-14 -11 -32 10 -18 21c58 48 109 128 123 140z" />
    <glyph glyph-name="circumflex" unicode="&#x2c6;" horiz-adv-x="351" 
d="M57 373c-15 -12 -32 8 -19 20c51 48 90 112 100 126c8 12 19 23 37 23s29 -11 37 -23c10 -14 49 -78 100 -126c13 -12 -4 -32 -19 -20c-30 24 -94 72 -118 84c-24 -12 -88 -60 -118 -84z" />
    <glyph glyph-name="tilde" unicode="&#x2dc;" horiz-adv-x="373" 
d="M126 459c-8 5 -15 9 -23 9c-23 0 -42 -22 -42 -54c0 -18 -27 -18 -27 0c0 61 36 119 97 119c20 0 33 -6 46 -15l70 -46c8 -5 15 -9 23 -9c23 0 42 22 42 54c0 18 27 18 27 0c0 -61 -36 -119 -97 -119c-20 0 -33 6 -46 15z" />
    <glyph glyph-name="macron" unicode="&#xaf;" horiz-adv-x="372" 
d="M315 443h-259c-32 0 -32 48 0 48h259c32 0 32 -48 0 -48z" />
    <glyph glyph-name="breve" unicode="&#x2d8;" horiz-adv-x="372" 
d="M36 509c-4 17 13 30 24 14c30 -45 73 -71 126 -71s96 26 126 71c11 16 28 3 24 -14c-18 -75 -77 -127 -150 -127s-132 52 -150 127z" />
    <glyph glyph-name="dotaccent" unicode="&#x2d9;" horiz-adv-x="176" 
d="M34 464c0 30 24 54 54 54s54 -24 54 -54s-24 -54 -54 -54s-54 24 -54 54z" />
    <glyph glyph-name="dieresis" unicode="&#xa8;" horiz-adv-x="351" 
d="M34 464c0 30 24 54 54 54s54 -24 54 -54s-24 -54 -54 -54s-54 24 -54 54zM209 464c0 30 24 54 54 54s54 -24 54 -54s-24 -54 -54 -54s-54 24 -54 54z" />
    <glyph glyph-name="ring" unicode="&#x2da;" horiz-adv-x="292" 
d="M258 455c0 -47 -51 -86 -112 -86s-112 39 -112 86s51 86 112 86s112 -39 112 -86zM190 460c-4 33 -22 57 -51 54c-29 -4 -41 -32 -37 -64c4 -33 22 -57 51 -54c29 4 41 32 37 64z" />
    <glyph glyph-name="cedilla" unicode="&#xb8;" horiz-adv-x="323" 
d="M133 3h76v-82c47 -11 90 -43 90 -89c0 -53 -55 -94 -137 -94c-83 0 -128 30 -128 78c0 23 18 41 41 41c26 0 37 -17 43 -39c6 -20 20 -53 62 -53c45 0 71 29 71 67s-25 65 -76 65h-12c-20 0 -30 9 -30 30v76z" />
    <glyph glyph-name="hungarumlaut" unicode="&#x2dd;" horiz-adv-x="404" 
d="M370 507c0 -11 -5 -22 -13 -30c-13 -12 -99 -54 -153 -105c-12 -12 -33 8 -18 21c58 48 109 128 123 140c8 7 17 10 26 10c24 0 35 -18 35 -36zM223 507c0 -11 -5 -22 -13 -30c-13 -12 -99 -54 -153 -105c-12 -12 -33 8 -18 21c58 48 109 128 123 140c8 7 17 10 26 10
c24 0 35 -18 35 -36z" />
    <glyph glyph-name="ogonek" unicode="&#x2db;" horiz-adv-x="302" 
d="M34 -90c0 61 62 107 150 107c24 0 22 -27 4 -27c-46 0 -82 -32 -82 -80s38 -87 87 -87c22 0 44 6 58 13c16 8 27 -15 12 -24c-16 -9 -46 -17 -75 -17c-90 0 -154 52 -154 115z" />
    <glyph glyph-name="caron" unicode="&#x2c7;" horiz-adv-x="351" 
d="M293 538c15 12 32 -8 19 -20c-51 -48 -90 -112 -100 -126c-8 -12 -19 -23 -37 -23s-29 11 -37 23c-10 14 -49 78 -100 126c-13 12 4 32 19 20c30 -24 94 -72 118 -84c24 12 88 60 118 84z" />
    <glyph glyph-name="emdash" unicode="&#x2014;" horiz-adv-x="842" 
d="M649 139h-456c-40 0 -64 -3 -102 -3c-42 0 -42 62 0 62c38 0 62 -3 102 -3h456c40 0 64 3 102 3c42 0 42 -62 0 -62c-38 0 -62 3 -102 3z" />
    <glyph glyph-name="AE" unicode="&#xc6;" horiz-adv-x="900" 
d="M415 214l-38 91c-12 28 -26 70 -26 101c0 35 12 80 35 104c-104 -19 -140 -166 -158 -239l-12 -48c22 -6 50 -9 80 -9h119zM745 355c-27 0 -45 19 -45 42s18 38 37 42c21 4 35 16 35 34s-19 40 -67 40c-62 0 -111 -44 -111 -109c0 -41 17 -68 35 -84
c13 -12 25 -22 25 -41s-13 -33 -32 -42c-38 -17 -60 -51 -60 -97c0 -69 57 -121 130 -121c84 0 142 59 167 107c8 15 32 3 24 -12c-29 -56 -92 -124 -202 -124c-54 0 -119 9 -166 45c-30 23 -45 48 -67 100l-22 52h-164c-18 0 -38 1 -56 2c-33 -104 -82 -199 -175 -199
c-18 0 -35 3 -54 12c-16 7 -6 31 10 24c17 -7 30 -9 44 -9c76 0 106 94 129 180c-66 12 -126 43 -126 85c0 25 17 43 40 43s31 -15 48 -36c14 -18 30 -34 49 -46l8 29c40 144 105 269 253 269c17 0 24 -6 24 -15s-6 -13 -14 -15c-12 -3 -26 -18 -26 -40c0 -11 4 -23 9 -35
l87 -207c32 24 73 32 90 34c16 2 23 7 23 16c0 10 -7 13 -22 18c-31 10 -92 39 -92 107c0 98 110 137 188 137c91 0 123 -55 123 -97c0 -51 -37 -89 -77 -89z" />
    <glyph glyph-name="ordfeminine" unicode="&#xaa;" horiz-adv-x="389" 
d="M310 192c-38 0 -62 3 -102 3h-7c-40 0 -64 -3 -102 -3c-42 0 -42 62 0 62c38 0 62 -3 102 -3h7c40 0 64 3 102 3c42 0 42 -62 0 -62zM238 398v14c-5 -1 -11 -3 -18 -3c-24 0 -31 4 -49 4c-21 0 -38 -13 -38 -33c0 -19 16 -35 45 -35s60 22 60 53zM274 327
c-11 0 -24 0 -36 -1v14c-15 -12 -40 -20 -77 -20c-68 0 -99 29 -99 60s32 59 95 59c22 0 40 -5 60 -5c13 0 23 9 23 22c0 16 -14 26 -36 26c-17 0 -30 -3 -40 -17c-3 -4 -9 -11 -19 -11c-12 0 -18 7 -18 16c0 23 37 37 90 37c54 0 91 -19 91 -60v-94c17 -1 30 -2 30 -2
c17 -1 15 -26 -2 -26c0 0 -37 2 -62 2z" />
    <glyph glyph-name="Lslash" unicode="&#x141;" horiz-adv-x="550" 
d="M233 263c6 -24 11 -56 11 -81c0 -68 -37 -128 -85 -158c35 -3 79 -7 100 -7c112 0 159 54 175 76c13 17 25 36 48 36s40 -18 40 -43c0 -42 -67 -96 -229 -96c-54 0 -90 3 -138 3c-36 0 -67 -3 -85 -3c-20 0 -42 5 -56 12c-17 8 -4 32 10 25c10 -5 20 -7 29 -7
c47 0 96 71 96 145c0 9 -1 19 -2 26l-91 -77c-13 -11 -31 9 -18 20l104 88c-5 25 -14 52 -22 75c-9 30 -23 73 -23 110c0 93 82 134 164 134c75 0 137 -61 137 -134c0 -25 -3 -38 -7 -53c-5 -18 -32 -10 -26 8c4 13 6 27 6 45c0 59 -49 107 -110 107c-59 0 -77 -37 -77 -60
c0 -26 15 -74 30 -124c4 -13 8 -26 11 -38l84 70c13 11 31 -9 18 -20z" />
    <glyph glyph-name="Oslash" unicode="&#xd8;" horiz-adv-x="678" 
d="M655 528l-96 -85c43 -46 69 -110 69 -178c0 -152 -129 -275 -289 -275c-79 0 -150 30 -202 78l-96 -85c-13 -12 -31 8 -18 20l95 84c-40 45 -68 110 -68 178c0 152 129 276 289 276c79 0 153 -32 202 -78l96 85c13 12 31 -8 18 -20zM479 408c-34 63 -86 106 -149 106
c-105 0 -171 -93 -171 -229c0 -50 10 -96 27 -137zM519 244c0 49 -10 97 -28 138l-293 -259c34 -64 89 -106 153 -106c101 0 168 97 168 227z" />
    <glyph glyph-name="OE" unicode="&#x152;" horiz-adv-x="874" 
d="M857 114c-29 -56 -91 -124 -205 -124c-55 0 -119 10 -165 38c-43 -24 -94 -38 -148 -38c-160 0 -289 123 -289 275s129 276 289 276c58 0 111 -16 156 -44c40 31 100 44 152 44c103 0 131 -55 131 -97c0 -51 -37 -89 -77 -89c-27 0 -45 19 -45 42s18 38 37 42
c21 4 35 16 35 34s-19 40 -67 40c-62 0 -111 -44 -111 -109c0 -41 17 -68 35 -84c13 -12 25 -22 25 -41s-11 -28 -25 -41c-29 -27 -49 -52 -49 -98c0 -69 57 -121 130 -121c84 0 142 59 167 107c8 15 32 3 24 -12zM581 279c0 10 -6 14 -21 17c-46 10 -113 35 -113 108
c0 16 3 31 9 44c-33 40 -76 66 -126 66c-105 0 -171 -93 -171 -229c0 -142 81 -268 190 -268c40 0 76 15 104 41c-18 24 -28 48 -28 82c0 99 103 120 134 123c16 2 22 7 22 16z" />
    <glyph glyph-name="ordmasculine" unicode="&#xba;" horiz-adv-x="389" 
d="M310 192c-38 0 -62 3 -102 3h-7c-40 0 -64 -3 -102 -3c-42 0 -42 62 0 62c38 0 62 -3 102 -3h7c40 0 64 3 102 3c42 0 42 -62 0 -62zM339 414c0 -49 -50 -94 -134 -94c-86 0 -135 45 -135 94s49 93 135 93c85 0 134 -44 134 -93zM265 412c0 35 -26 70 -61 70
c-37 0 -60 -29 -60 -66s26 -71 61 -71c37 0 60 29 60 67z" />
    <glyph glyph-name="ae" unicode="&#xe6;" horiz-adv-x="675" 
d="M635 67c-31 -45 -85 -77 -167 -77c-56 0 -108 20 -142 50c-38 -33 -88 -50 -143 -50c-101 0 -153 43 -153 95s55 95 138 95c35 0 56 -9 86 -9c24 0 36 16 36 41c0 30 -19 47 -50 47c-24 0 -40 -8 -52 -19c-19 -18 -14 -37 -38 -37c-14 0 -24 9 -24 21c0 29 55 62 131 62
c42 0 76 -9 98 -29c32 18 72 29 115 29c88 0 157 -56 157 -114c0 -36 -23 -53 -61 -53h-151c-18 0 -18 27 0 27h64c29 0 46 15 46 44c0 30 -20 69 -60 69c-55 0 -86 -49 -86 -107c0 -76 36 -135 108 -135c46 0 99 27 126 66c10 15 32 -1 22 -16zM289 111v37
c-9 -2 -18 -4 -32 -4c-34 0 -45 7 -73 7c-35 0 -65 -27 -65 -67c0 -37 26 -67 77 -67c47 0 93 39 93 94z" />
    <glyph glyph-name="dotlessi" unicode="&#x131;" horiz-adv-x="341" 
d="M211 20c45 0 86 42 86 99c0 18 27 18 27 0c0 -73 -53 -129 -130 -129c-69 0 -119 26 -119 100v169c-25 1 -48 3 -48 3c-17 1 -15 27 2 26c0 0 56 -4 91 -4c36 0 91 4 91 4c17 1 19 -24 2 -26c0 0 -22 -2 -47 -3v-187c0 -33 12 -52 45 -52z" />
    <glyph glyph-name="lslash" unicode="&#x142;" horiz-adv-x="336" 
d="M70 176l-49 -41c-13 -11 -31 9 -18 20l67 56v264c-26 1 -48 3 -48 3c-17 2 -15 27 2 26c0 0 55 -4 91 -4c14 0 31 1 46 1v-213l88 74c13 11 31 -9 18 -20l-106 -89v-181c0 -33 12 -52 45 -52c45 0 86 42 86 99c0 18 27 18 27 0c0 -73 -53 -129 -130 -129
c-69 0 -119 26 -119 100v86z" />
    <glyph glyph-name="oslash" unicode="&#xf8;" horiz-adv-x="463" 
d="M463 321l-91 -81c30 -25 51 -62 51 -102c0 -83 -84 -148 -191 -148c-41 0 -78 9 -111 26l-95 -85c-13 -12 -31 8 -18 20l90 80c-36 27 -58 65 -58 107c0 83 85 148 192 148c44 0 85 -11 117 -30l96 85c13 12 31 -8 18 -20zM302 214c-16 27 -42 45 -75 45
c-56 0 -87 -49 -87 -107c0 -26 4 -51 13 -71zM324 129c0 21 -3 41 -10 59l-148 -132c17 -24 41 -39 71 -39c57 0 87 49 87 112z" />
    <glyph glyph-name="oe" unicode="&#x153;" horiz-adv-x="718" 
d="M678 67c-31 -45 -85 -77 -167 -77c-54 0 -104 18 -138 47c-35 -29 -85 -47 -141 -47c-107 0 -192 65 -192 148s85 148 192 148c56 0 106 -18 140 -47c35 29 85 47 141 47c88 0 157 -56 157 -114c0 -36 -23 -53 -61 -53h-151c-18 0 -18 27 0 27h64c29 0 46 15 46 44
c0 30 -20 69 -60 69c-55 0 -86 -49 -86 -107c0 -76 36 -135 108 -135c46 0 99 27 126 66c10 15 32 -1 22 -16zM324 129c0 70 -37 130 -97 130c-56 0 -87 -49 -87 -107c0 -76 37 -135 97 -135c57 0 87 49 87 112z" />
    <glyph glyph-name="germandbls" unicode="&#xdf;" horiz-adv-x="594" 
d="M554 84c0 -64 -80 -94 -167 -94c-75 0 -142 17 -164 52c-20 -8 -48 -20 -65 -28v-277c0 -90 -51 -160 -111 -160s-120 63 -120 160c0 110 56 191 118 239c8 6 16 12 25 18v278c0 135 45 282 196 282c74 0 115 -50 115 -103c0 -59 -38 -97 -80 -97c-23 0 -42 19 -42 42
s16 37 38 42c20 5 31 17 31 39c0 25 -21 50 -60 50c-105 0 -110 -131 -110 -255v-229c18 9 41 18 59 26c2 21 18 33 40 33c32 0 38 -28 57 -52c14 -17 35 -33 81 -33c44 0 83 14 83 42c0 26 -31 34 -62 42l-77 19c-47 12 -106 27 -106 81c0 62 70 85 156 85
c47 0 84 -10 109 -25c1 15 2 28 2 28c1 17 27 15 26 -2c0 0 -2 -28 -2 -43c0 -18 2 -43 2 -43c1 -17 -23 -19 -26 -2s-23 60 -110 60c-45 0 -78 -12 -78 -37c0 -23 26 -29 52 -36l84 -21c47 -12 106 -27 106 -81zM131 -263c0 70 -47 140 -58 226l-12 -9
c-55 -42 -86 -129 -86 -217c0 -79 24 -133 72 -133s84 61 84 133z" />
    <glyph glyph-name="NUL" 
 />
    <glyph glyph-name="Eth" unicode="&#xd0;" horiz-adv-x="634" 
d="M584 266c0 -150 -134 -276 -298 -276c-27 0 -64 5 -104 24c-22 -17 -52 -24 -87 -24c-20 0 -42 5 -56 12c-17 8 -4 32 10 25c10 -5 20 -7 29 -7c25 0 38 20 38 47v184h-95c-18 0 -18 27 0 27h95v230c-26 1 -48 3 -48 3c-17 2 -15 27 2 26c0 0 59 -4 95 -4
c58 0 89 6 138 6c63 0 125 -20 176 -61c66 -53 105 -127 105 -212zM481 252c0 85 -30 155 -74 201c-36 38 -79 59 -130 59c-19 0 -42 -3 -63 -5v-229h143c18 0 18 -27 0 -27h-143v-166c0 -20 -4 -36 -12 -49c32 -16 61 -19 86 -19c120 0 193 115 193 235z" />
    <glyph glyph-name="eth" unicode="&#xf0;" horiz-adv-x="474" 
d="M424 180c0 -99 -57 -190 -192 -190c-107 0 -192 65 -192 148s85 148 192 148c26 0 50 -4 72 -11c-9 30 -20 58 -36 89l-88 -36c-16 -7 -26 17 -10 24l84 34c-30 47 -77 82 -124 96c-17 5 -9 31 8 27c48 -12 119 -51 171 -100l91 37c16 7 26 -17 10 -24l-81 -33
c59 -61 95 -141 95 -209zM324 129c0 70 -37 130 -97 130c-56 0 -87 -49 -87 -107c0 -76 37 -135 97 -135c57 0 87 49 87 112z" />
    <glyph glyph-name="Scaron" unicode="&#x160;" horiz-adv-x="562" 
d="M415 112c0 45 -36 66 -67 80l-191 84c-43 19 -92 46 -92 113c0 113 140 152 230 152c122 0 162 -61 162 -113c0 -51 -38 -89 -80 -89c-23 0 -42 19 -42 42s18 38 37 42c21 4 32 14 32 31c0 20 -21 60 -107 60c-70 0 -135 -34 -135 -94c0 -47 36 -67 67 -81l190 -84
c43 -19 93 -47 93 -113c0 -105 -125 -152 -229 -152c-116 0 -234 60 -234 147c0 35 28 52 54 52c33 0 46 -25 58 -59c17 -48 40 -113 132 -113c73 0 122 45 122 95zM407 754c15 12 32 -8 19 -20c-51 -48 -90 -112 -100 -126c-8 -12 -19 -23 -37 -23s-29 11 -37 23
c-10 14 -49 78 -100 126c-13 12 4 32 19 20c30 -24 94 -72 118 -84c24 12 88 60 118 84z" />
    <glyph glyph-name="scaron" unicode="&#x161;" horiz-adv-x="410" 
d="M203 -10c-89 0 -170 24 -170 75c0 24 17 37 40 37c32 0 38 -28 57 -52c14 -17 35 -33 81 -33c44 0 83 14 83 42c0 26 -31 34 -62 42l-77 19c-47 12 -106 27 -106 81c0 62 70 85 156 85c47 0 84 -10 109 -25c1 15 2 28 2 28c1 17 27 15 26 -2c0 0 -2 -28 -2 -43
c0 -18 2 -43 2 -43c1 -17 -23 -19 -26 -2s-23 60 -110 60c-45 0 -78 -12 -78 -37c0 -23 26 -29 52 -36l84 -21c47 -12 106 -27 106 -81c0 -64 -80 -94 -167 -94zM326 538c15 12 32 -8 19 -20c-51 -48 -90 -112 -100 -126c-8 -12 -19 -23 -37 -23s-29 11 -37 23
c-10 14 -49 78 -100 126c-13 12 4 32 19 20c30 -24 94 -72 118 -84c24 12 88 60 118 84z" />
    <glyph glyph-name="Yacute" unicode="&#xdd;" horiz-adv-x="568" 
d="M157 -3c-17 -1 -19 25 -2 26c0 0 23 2 48 3v197l-198 285c-16 1 -39 3 -39 3c-17 1 -15 27 2 26c0 0 60 -4 94 -4c35 0 94 4 94 4c17 1 19 -24 2 -26c0 0 -24 -2 -42 -3l174 -251c6 14 15 31 27 51c91 146 169 233 237 233c28 0 43 -20 43 -41c0 -27 -17 -40 -44 -42
c-98 -7 -152 -63 -212 -164c-13 -22 -42 -69 -42 -150v-118c26 -1 48 -3 48 -3c17 -2 15 -27 -2 -26c0 0 -59 4 -94 4c-34 0 -94 -4 -94 -4zM311 749c18 15 43 12 58 -5c15 -18 13 -44 -4 -59c-14 -11 -102 -48 -159 -97c-14 -11 -32 10 -18 21c58 48 109 128 123 140z" />
    <glyph glyph-name="yacute" unicode="&#xfd;" horiz-adv-x="463" 
d="M104 -333c-74 0 -112 41 -112 89c0 40 24 73 61 73c24 0 44 -14 44 -39c0 -17 -11 -26 -22 -34c-14 -10 -27 -17 -27 -33s19 -29 60 -29c139 0 196 192 196 337v34c-31 -44 -71 -75 -117 -75c-57 0 -102 26 -102 98v128c0 27 -13 47 -42 47c-9 0 -19 -2 -29 -7
c-14 -7 -27 17 -10 25c14 7 36 12 56 12c66 0 116 -27 116 -95v-134c0 -29 9 -40 29 -40c38 0 99 69 99 150v85c-26 1 -48 3 -48 3c-17 2 -15 27 2 26c0 0 54 -4 90 -4c14 0 30 1 45 1v-224c0 -45 -3 -77 -10 -108c-34 -152 -143 -286 -279 -286zM269 533c18 15 43 12 58 -5
c15 -18 13 -44 -4 -59c-14 -11 -102 -48 -159 -97c-14 -11 -32 10 -18 21c58 48 109 128 123 140z" />
    <glyph glyph-name="HT" 
 />
    <glyph glyph-name="LF" 
 />
    <glyph glyph-name="Thorn" unicode="&#xde;" horiz-adv-x="555" 
d="M316 127c53 0 91 54 91 121c0 89 -52 160 -122 160c-60 0 -96 -57 -96 -134v-248c26 -1 48 -3 48 -3c17 -2 15 -27 -2 -26c0 0 -59 4 -93 4c-33 0 -93 -4 -93 -4c-17 -1 -19 25 -2 26c0 0 23 2 48 3v482c-26 1 -48 3 -48 3c-17 2 -15 27 2 26c0 0 59 -4 93 -4
c33 0 93 4 93 4c17 1 19 -25 2 -26c0 0 -23 -2 -48 -3v-106c23 18 55 33 112 33c115 0 209 -75 209 -170c0 -94 -96 -168 -183 -168c-82 0 -111 67 -96 136c4 17 30 11 26 -6c-11 -51 8 -100 59 -100z" />
    <glyph glyph-name="thorn" unicode="&#xfe;" horiz-adv-x="474" 
d="M154 -167c25 -1 47 -3 47 -3c17 -2 15 -27 -2 -26c0 0 -56 4 -88 4c-30 0 -87 -4 -87 -4c-17 -1 -19 25 -2 26c0 0 23 2 48 3v642c-26 1 -48 3 -48 3c-17 2 -15 27 2 26c0 0 55 -4 87 -4c11 0 28 1 43 1v-247c25 20 60 32 111 32c95 0 169 -55 169 -145
c0 -84 -71 -151 -147 -151c-77 0 -106 67 -91 136c4 17 30 11 26 -6c-11 -51 10 -97 43 -97c40 0 68 64 68 121c0 73 -44 115 -89 115c-41 0 -70 -25 -83 -73c-5 -19 -7 -47 -7 -69v-284z" />
    <glyph glyph-name="CR" 
 />
    <glyph glyph-name="Zcaron" unicode="&#x17d;" horiz-adv-x="553" 
d="M532 94c-14 -51 -64 -104 -123 -104c-45 0 -72 21 -91 34l-80 57c-21 15 -31 21 -46 21c-23 0 -35 -23 -45 -51c-11 -30 -30 -61 -61 -61c-24 0 -39 16 -39 41c0 43 51 85 123 103l84 103c-20 -1 -38 -2 -62 -2c-42 0 -42 62 0 62c38 0 62 -3 102 -3h6l85 105
c-8 -2 -21 -5 -35 -5c-78 0 -136 94 -201 94c-39 0 -59 -24 -59 -48c0 -17 11 -34 38 -43c21 -7 33 -22 33 -41c0 -23 -19 -43 -42 -43c-37 0 -72 37 -72 87c0 73 64 141 156 141c100 0 122 -61 178 -61c35 0 85 21 122 65c11 13 31 -3 20 -16l-189 -234c21 1 38 2 62 2
c42 0 42 -62 0 -62c-38 0 -62 3 -102 3h-6l-79 -97c17 3 35 4 54 4c45 0 85 -21 109 -39l48 -35c14 -10 22 -13 36 -13c21 0 43 23 50 44c6 17 31 10 26 -8zM438 754c15 12 32 -8 19 -20c-51 -48 -90 -112 -100 -126c-8 -12 -19 -23 -37 -23s-29 11 -37 23
c-10 14 -49 78 -100 126c-13 12 4 32 19 20c30 -24 94 -72 118 -84c24 12 88 60 118 84z" />
    <glyph glyph-name="zcaron" unicode="&#x17e;" horiz-adv-x="377" 
d="M117 8c-17 14 -27 33 -27 51c0 22 17 39 39 39s30 -13 38 -27c17 22 71 92 97 129c-26 -1 -55 -2 -82 -2c-38 0 -82 2 -110 4c-1 -27 -3 -51 -3 -51c-2 -17 -27 -15 -26 2c0 0 4 55 4 91c0 13 -1 29 -1 44c0 0 98 -5 136 -5c58 0 134 5 149 5c13 0 17 -13 11 -21
c-63 -94 -94 -138 -160 -219c8 -7 18 -12 34 -12c38 0 77 28 105 63c11 14 31 -4 20 -18c-32 -39 -97 -91 -163 -91c-14 0 -27 2 -38 6c-24 -29 -46 -55 -54 -63c43 0 58 -19 93 -54c26 -25 49 -45 78 -45c25 0 49 18 56 39c6 17 31 10 26 -8c-14 -51 -63 -91 -121 -91
c-57 0 -87 22 -114 49s-40 48 -60 48c-17 0 -29 -12 -46 -29c-13 -13 -33 7 -20 20c46 44 101 101 139 146zM313 538c15 12 32 -8 19 -20c-51 -48 -90 -112 -100 -126c-8 -12 -19 -23 -37 -23s-29 11 -37 23c-10 14 -49 78 -100 126c-13 12 4 32 19 20
c30 -24 94 -72 118 -84c24 12 88 60 118 84z" />
    <glyph glyph-name="DLE" 
 />
    <glyph glyph-name="DC1" 
 />
    <glyph glyph-name="DC2" 
 />
    <glyph glyph-name="DC3" 
 />
    <glyph glyph-name="DC4" 
 />
    <glyph glyph-name="onehalf" unicode="&#xbd;" horiz-adv-x="852" 
d="M820 55c-13 -33 -44 -65 -85 -65c-33 0 -52 13 -67 26l-37 30c-10 8 -18 15 -32 15c-18 0 -28 -18 -34 -33c-8 -19 -19 -38 -41 -38c-17 0 -27 13 -27 29c0 31 39 55 74 62c53 37 124 84 124 137c0 37 -27 66 -66 66c-37 0 -54 -17 -54 -29c0 -11 7 -15 22 -19
c18 -3 33 -17 33 -36c0 -20 -16 -37 -42 -37c-30 0 -59 23 -59 62c0 46 40 85 113 85c62 0 131 -35 131 -92c0 -40 -35 -64 -68 -82c-20 -11 -46 -25 -73 -45c5 1 13 1 20 1c30 0 52 -12 64 -21l23 -18c8 -7 17 -14 28 -14c13 0 22 12 27 26c6 17 33 7 26 -10zM656 502
l-449 -536c-20 -24 -56 6 -36 30l449 536c20 24 56 -6 36 -30zM210 487v-267c10 0 33 -1 49 -2c17 -1 15 -27 -2 -26c-24 1 -50 2 -81 2c-34 0 -62 -1 -83 -2c-17 -1 -19 25 -2 26c15 1 35 2 52 2v157c-19 -27 -46 -52 -79 -71c-16 -9 -31 15 -14 24c66 37 96 91 118 160
c3 10 9 17 22 17c11 0 20 -8 20 -20z" />
    <glyph glyph-name="onequarter" unicode="&#xbc;" horiz-adv-x="852" 
d="M801 82c-20 -2 -37 -4 -61 -4h-20v-53c10 0 32 -1 47 -2c17 -1 15 -27 -2 -26c-24 1 -50 2 -82 2c-31 0 -59 -1 -80 -2c-17 -1 -19 25 -2 26c14 1 38 2 48 2v56c-50 0 -95 -9 -135 -36c-11 -7 -28 3 -21 17c16 33 31 59 54 92c14 22 19 35 19 55c0 33 -20 48 -20 69
c0 20 15 33 32 33c25 0 40 -22 40 -56c0 -38 -24 -78 -49 -115c-9 -14 -16 -26 -23 -38c18 1 72 6 103 6v105c11 -1 23 -1 36 -1c33 0 56 1 80 2c17 1 19 -25 2 -26c-15 -1 -30 -2 -47 -2v-81h20c24 0 40 2 60 4c18 2 21 -25 1 -27zM656 502l-449 -536c-20 -24 -56 6 -36 30
l449 536c20 24 56 -6 36 -30zM210 487v-267c10 0 33 -1 49 -2c17 -1 15 -27 -2 -26c-24 1 -50 2 -81 2c-34 0 -62 -1 -83 -2c-17 -1 -19 25 -2 26c15 1 35 2 52 2v157c-19 -27 -46 -52 -79 -71c-16 -9 -31 15 -14 24c66 37 96 91 118 160c3 10 9 17 22 17c11 0 20 -8 20 -20
z" />
    <glyph glyph-name="onesuperior" unicode="&#xb9;" horiz-adv-x="238" 
d="M200 487v-267c10 0 33 -1 49 -2c17 -1 15 -27 -2 -26c-24 1 -50 2 -81 2c-34 0 -62 -1 -83 -2c-17 -1 -19 25 -2 26c15 1 35 2 52 2v157c-19 -27 -46 -52 -79 -71c-16 -9 -31 15 -14 24c66 37 96 91 118 160c3 10 9 17 22 17c11 0 20 -8 20 -20z" />
    <glyph glyph-name="threequarters" unicode="&#xbe;" horiz-adv-x="906" 
d="M855 82c-20 -2 -37 -4 -61 -4h-20v-53c10 0 32 -1 47 -2c17 -1 15 -27 -2 -26c-24 1 -50 2 -82 2c-31 0 -59 -1 -80 -2c-17 -1 -19 25 -2 26c14 1 38 2 48 2v56c-50 0 -95 -9 -135 -36c-11 -7 -28 3 -21 17c16 33 31 59 54 92c14 22 19 35 19 55c0 33 -20 48 -20 69
c0 20 15 33 32 33c25 0 40 -22 40 -56c0 -38 -24 -78 -49 -115c-9 -14 -16 -26 -23 -38c18 1 72 6 103 6v105c11 -1 23 -1 36 -1c33 0 56 1 80 2c17 1 19 -25 2 -26c-15 -1 -30 -2 -47 -2v-81h20c24 0 40 2 60 4c18 2 21 -25 1 -27zM710 502l-449 -536c-20 -24 -56 6 -36 30
l449 536c20 24 56 -6 36 -30zM343 290c0 -50 -52 -103 -164 -103c-86 0 -126 33 -126 81c0 32 25 58 63 58c26 0 44 -17 44 -39c0 -19 -10 -30 -36 -35c-12 -2 -17 -7 -17 -13c0 -12 21 -27 62 -27c61 0 97 34 97 72c0 43 -36 67 -68 67c-13 0 -26 -4 -36 -6
c-18 -3 -22 23 -6 26c53 11 76 29 76 59c0 33 -28 52 -63 52c-29 0 -41 -7 -41 -14c0 -5 3 -7 8 -8c15 -3 29 -15 29 -33s-15 -34 -38 -34c-29 0 -49 22 -49 49c0 36 32 65 101 65c70 0 123 -32 123 -75c0 -33 -30 -52 -60 -59c55 -4 101 -35 101 -83z" />
    <glyph glyph-name="threesuperior" unicode="&#xb3;" horiz-adv-x="339" 
d="M333 290c0 -50 -52 -103 -164 -103c-86 0 -126 33 -126 81c0 32 25 58 63 58c26 0 44 -17 44 -39c0 -19 -10 -30 -36 -35c-12 -2 -17 -7 -17 -13c0 -12 21 -27 62 -27c61 0 97 34 97 72c0 43 -36 67 -68 67c-13 0 -26 -4 -36 -6c-18 -3 -22 23 -6 26c53 11 76 29 76 59
c0 33 -28 52 -63 52c-29 0 -41 -7 -41 -14c0 -5 3 -7 8 -8c15 -3 29 -15 29 -33s-15 -34 -38 -34c-29 0 -49 22 -49 49c0 36 32 65 101 65c70 0 123 -32 123 -75c0 -33 -30 -52 -60 -59c55 -4 101 -35 101 -83z" />
    <glyph glyph-name="twosuperior" unicode="&#xb2;" horiz-adv-x="334" 
d="M159 288c5 1 13 1 20 1c30 0 52 -12 64 -21l23 -18c8 -7 17 -14 28 -14c13 0 22 12 27 26c6 17 33 7 26 -10c-13 -33 -44 -65 -85 -65c-33 0 -52 13 -67 26l-37 30c-10 8 -18 15 -32 15c-18 0 -28 -18 -34 -33c-8 -19 -19 -38 -41 -38c-17 0 -27 13 -27 29
c0 31 39 55 74 62c53 37 124 84 124 137c0 37 -27 66 -66 66c-37 0 -54 -17 -54 -29c0 -11 7 -15 22 -19c18 -3 33 -17 33 -36c0 -20 -16 -37 -42 -37c-30 0 -59 23 -59 62c0 46 40 85 113 85c62 0 131 -35 131 -92c0 -40 -35 -64 -68 -82c-20 -11 -46 -25 -73 -45z" />
    <glyph glyph-name="brokenbar" unicode="&#xa6;" horiz-adv-x="256" 
d="M156 479v-93c0 -40 3 -64 3 -102c0 -42 -62 -42 -62 0c0 38 3 62 3 102v93c0 40 -3 64 -3 102c0 42 62 42 62 0c0 -38 -3 -62 -3 -102zM156 26v-93c0 -40 3 -64 3 -102c0 -42 -62 -42 -62 0c0 38 3 62 3 102v93c0 40 -3 64 -3 102c0 42 62 42 62 0c0 -38 -3 -62 -3 -102z
" />
    <glyph glyph-name="minus" unicode="&#x2212;" horiz-adv-x="448" 
d="M269 139h-90c-40 0 -64 -3 -102 -3c-42 0 -42 62 0 62c38 0 62 -3 102 -3h90c40 0 64 3 102 3c42 0 42 -62 0 -62c-38 0 -62 3 -102 3z" />
    <glyph glyph-name="multiply" unicode="&#xd7;" horiz-adv-x="448" 
d="M224 209l30 30c29 28 44 47 70 74c30 30 74 -14 44 -44c-27 -26 -46 -41 -74 -70l-30 -30l29 -30c29 -28 48 -43 75 -70c29 -29 -15 -73 -44 -44c-27 27 -42 46 -70 75l-30 29l-30 -29c-28 -29 -43 -48 -70 -75c-29 -29 -73 15 -44 44c27 27 46 42 75 70l29 30l-30 30
c-28 29 -47 44 -74 70c-30 30 14 74 44 44c26 -27 41 -46 70 -74z" />
    <glyph glyph-name="RS" 
 />
    <glyph glyph-name="US" 
 />
    <glyph glyph-name="DEL" 
 />
    <glyph glyph-name="Adieresis" unicode="&#xc4;" horiz-adv-x="635" 
d="M604 23c17 -2 15 -27 -2 -26c0 0 -59 4 -95 4c-35 0 -95 -4 -95 -4c-17 -1 -19 25 -2 26c0 0 25 2 44 3l-51 161h-141c-18 0 -38 1 -56 2c-33 -104 -82 -199 -175 -199c-18 0 -35 3 -54 12c-16 7 -6 31 10 24c17 -7 30 -9 44 -9c76 0 106 94 129 180
c-66 12 -126 43 -126 85c0 25 17 43 40 43s31 -15 48 -36c14 -18 30 -34 49 -46l8 29c40 144 105 269 253 269c17 0 24 -6 24 -15s-6 -13 -14 -15c-12 -3 -22 -14 -22 -35c0 -14 4 -26 9 -41l71 -222l81 -3c17 -1 15 -27 -2 -26l-71 3l52 -161c18 -1 44 -3 44 -3zM394 214
l-30 95c-9 29 -15 55 -15 86c0 42 14 91 37 115c-104 -19 -140 -166 -158 -239l-12 -48c22 -6 50 -9 80 -9h98zM212 680c0 30 24 54 54 54s54 -24 54 -54s-24 -54 -54 -54s-54 24 -54 54zM387 680c0 30 24 54 54 54s54 -24 54 -54s-24 -54 -54 -54s-54 24 -54 54z" />
    <glyph glyph-name="Aring" unicode="&#xc5;" horiz-adv-x="635" 
d="M604 23c17 -2 15 -27 -2 -26c0 0 -59 4 -95 4c-35 0 -95 -4 -95 -4c-17 -1 -19 25 -2 26c0 0 25 2 44 3l-51 161h-141c-18 0 -38 1 -56 2c-33 -104 -82 -199 -175 -199c-18 0 -35 3 -54 12c-16 7 -6 31 10 24c17 -7 30 -9 44 -9c76 0 106 94 129 180
c-66 12 -126 43 -126 85c0 25 17 43 40 43s31 -15 48 -36c14 -18 30 -34 49 -46l8 29c40 144 105 269 253 269c17 0 24 -6 24 -15s-6 -13 -14 -15c-12 -3 -22 -14 -22 -35c0 -14 4 -26 9 -41l71 -222l81 -3c17 -1 15 -27 -2 -26l-71 3l52 -161c18 -1 44 -3 44 -3zM394 214
l-30 95c-9 29 -15 55 -15 86c0 42 14 91 37 115c-104 -19 -140 -166 -158 -239l-12 -48c22 -6 50 -9 80 -9h98zM466 671c0 -47 -51 -86 -112 -86s-112 39 -112 86s51 86 112 86s112 -39 112 -86zM398 676c-4 33 -22 57 -51 54c-29 -4 -41 -32 -37 -64c4 -33 22 -57 51 -54
c29 4 41 32 37 64z" />
    <glyph glyph-name="Ccedilla" unicode="&#xc7;" horiz-adv-x="526" 
d="M268 -6c-133 24 -218 136 -218 271c0 152 112 276 246 276c85 0 127 -54 127 -117c0 -80 -57 -133 -112 -133c-30 0 -54 25 -54 54c0 30 23 50 57 62c29 10 49 27 49 54c0 26 -19 53 -65 53c-96 0 -145 -96 -145 -224c0 -148 77 -269 184 -269c66 0 123 57 148 105
c8 15 32 3 24 -12c-27 -51 -84 -112 -165 -123v-70c47 -11 90 -43 90 -89c0 -53 -55 -94 -137 -94c-83 0 -128 30 -128 78c0 23 18 41 41 41c26 0 37 -17 43 -39c6 -20 20 -53 62 -53c45 0 71 29 71 67s-25 65 -76 65h-12c-20 0 -30 9 -30 30v67z" />
    <glyph glyph-name="Eacute" unicode="&#xc9;" horiz-adv-x="499" 
d="M175 404c0 -41 17 -68 35 -84c13 -12 25 -22 25 -41s-11 -28 -25 -41c-29 -27 -49 -52 -49 -98c0 -69 57 -121 130 -121c84 0 142 59 167 107c8 15 32 3 24 -12c-29 -56 -91 -124 -205 -124c-100 0 -227 32 -227 150c0 99 103 120 134 123c16 2 22 7 22 16
c0 10 -6 14 -21 17c-46 10 -113 35 -113 108c0 98 110 137 200 137c103 0 131 -55 131 -97c0 -51 -37 -89 -77 -89c-27 0 -45 19 -45 42s18 38 37 42c21 4 35 16 35 34s-19 40 -67 40c-62 0 -111 -44 -111 -109zM270 749c18 15 43 12 58 -5c15 -18 13 -44 -4 -59
c-14 -11 -102 -48 -159 -97c-14 -11 -32 10 -18 21c58 48 109 128 123 140z" />
    <glyph glyph-name="Ntilde" unicode="&#xd1;" horiz-adv-x="600" 
d="M143 1c-34 0 -94 -4 -94 -4c-17 -1 -19 25 -2 26c0 0 23 2 48 3v482c-26 1 -48 3 -48 3c-17 1 -15 27 2 26c0 0 60 -4 93 -4c13 0 31 1 48 1v-75c42 47 99 82 168 82c107 0 168 -87 168 -203c0 -117 -61 -235 -61 -283c0 -20 16 -37 37 -37c11 0 28 4 38 9
c14 7 27 -17 10 -25c-14 -7 -36 -12 -56 -12c-73 0 -102 61 -102 124c0 84 44 155 44 258c0 56 -24 138 -97 138c-66 0 -149 -74 -149 -189v-295c26 -1 48 -3 48 -3c17 -2 15 -27 -2 -26c0 0 -60 4 -93 4zM250 675c-8 5 -15 9 -23 9c-23 0 -42 -22 -42 -54
c0 -18 -27 -18 -27 0c0 61 36 119 97 119c20 0 33 -6 46 -15l70 -46c8 -5 15 -9 23 -9c23 0 42 22 42 54c0 18 27 18 27 0c0 -61 -36 -119 -97 -119c-20 0 -33 6 -46 15z" />
    <glyph glyph-name="Odieresis" unicode="&#xd6;" horiz-adv-x="678" 
d="M628 265c0 -152 -129 -275 -289 -275s-289 123 -289 275s129 276 289 276s289 -124 289 -276zM519 244c0 136 -78 270 -189 270c-105 0 -171 -93 -171 -229c0 -142 81 -268 192 -268c101 0 168 97 168 227zM198 680c0 30 24 54 54 54s54 -24 54 -54s-24 -54 -54 -54
s-54 24 -54 54zM373 680c0 30 24 54 54 54s54 -24 54 -54s-24 -54 -54 -54s-54 24 -54 54z" />
    <glyph glyph-name="Udieresis" unicode="&#xdc;" horiz-adv-x="618" 
d="M529 -10c-65 0 -117 27 -117 95v11c-42 -67 -106 -106 -169 -106c-87 0 -148 39 -148 136v338c0 27 -13 47 -38 47c-9 0 -19 -2 -29 -7c-14 -7 -27 17 -10 25c14 7 36 12 56 12c67 0 119 -27 119 -95v-343c0 -64 30 -82 63 -82c70 0 156 83 156 222v291c17 0 34 -1 47 -1
c32 0 93 4 93 4c17 1 19 -25 2 -26c0 0 -22 -2 -48 -3v-441c0 -27 13 -47 38 -47c9 0 19 2 29 7c14 7 27 -17 10 -25c-14 -7 -33 -12 -54 -12zM161 680c0 30 24 54 54 54s54 -24 54 -54s-24 -54 -54 -54s-54 24 -54 54zM336 680c0 30 24 54 54 54s54 -24 54 -54
s-24 -54 -54 -54s-54 24 -54 54z" />
    <glyph glyph-name="aacute" unicode="&#xe1;" horiz-adv-x="460" 
d="M428 23c17 -2 15 -27 -2 -26c0 0 -55 4 -91 4c-14 0 -31 -1 -46 -1v31c-20 -24 -55 -41 -116 -41c-89 0 -143 43 -143 95s55 95 138 95c35 0 56 -9 86 -9c24 0 36 16 36 41c0 30 -19 47 -50 47c-24 0 -40 -8 -52 -19c-19 -18 -14 -37 -38 -37c-14 0 -24 9 -24 21
c0 29 55 62 131 62c73 0 123 -27 123 -92v-168c26 -1 48 -3 48 -3zM289 111v37c-9 -2 -18 -4 -32 -4c-34 0 -45 7 -73 7c-35 0 -65 -27 -65 -67c0 -37 26 -67 77 -67c47 0 93 39 93 94zM276 533c18 15 43 12 58 -5c15 -18 13 -44 -4 -59c-14 -11 -102 -48 -159 -97
c-14 -11 -32 10 -18 21c58 48 109 128 123 140z" />
    <glyph glyph-name="agrave" unicode="&#xe0;" horiz-adv-x="460" 
d="M428 23c17 -2 15 -27 -2 -26c0 0 -55 4 -91 4c-14 0 -31 -1 -46 -1v31c-20 -24 -55 -41 -116 -41c-89 0 -143 43 -143 95s55 95 138 95c35 0 56 -9 86 -9c24 0 36 16 36 41c0 30 -19 47 -50 47c-24 0 -40 -8 -52 -19c-19 -18 -14 -37 -38 -37c-14 0 -24 9 -24 21
c0 29 55 62 131 62c73 0 123 -27 123 -92v-168c26 -1 48 -3 48 -3zM289 111v37c-9 -2 -18 -4 -32 -4c-34 0 -45 7 -73 7c-35 0 -65 -27 -65 -67c0 -37 26 -67 77 -67c47 0 93 39 93 94zM163 470c-18 15 -20 40 -5 58c15 17 41 20 58 6c14 -12 66 -92 123 -140
c14 -12 -3 -32 -17 -21c-57 48 -145 85 -159 97z" />
    <glyph glyph-name="acircumflex" unicode="&#xe2;" horiz-adv-x="460" 
d="M428 23c17 -2 15 -27 -2 -26c0 0 -55 4 -91 4c-14 0 -31 -1 -46 -1v31c-20 -24 -55 -41 -116 -41c-89 0 -143 43 -143 95s55 95 138 95c35 0 56 -9 86 -9c24 0 36 16 36 41c0 30 -19 47 -50 47c-24 0 -40 -8 -52 -19c-19 -18 -14 -37 -38 -37c-14 0 -24 9 -24 21
c0 29 55 62 131 62c73 0 123 -27 123 -92v-168c26 -1 48 -3 48 -3zM289 111v37c-9 -2 -18 -4 -32 -4c-34 0 -45 7 -73 7c-35 0 -65 -27 -65 -67c0 -37 26 -67 77 -67c47 0 93 39 93 94zM121 373c-15 -12 -32 8 -19 20c51 48 90 112 100 126c8 12 19 23 37 23s29 -11 37 -23
c10 -14 49 -78 100 -126c13 -12 -4 -32 -19 -20c-30 24 -94 72 -118 84c-24 -12 -88 -60 -118 -84z" />
    <glyph glyph-name="adieresis" unicode="&#xe4;" horiz-adv-x="460" 
d="M428 23c17 -2 15 -27 -2 -26c0 0 -55 4 -91 4c-14 0 -31 -1 -46 -1v31c-20 -24 -55 -41 -116 -41c-89 0 -143 43 -143 95s55 95 138 95c35 0 56 -9 86 -9c24 0 36 16 36 41c0 30 -19 47 -50 47c-24 0 -40 -8 -52 -19c-19 -18 -14 -37 -38 -37c-14 0 -24 9 -24 21
c0 29 55 62 131 62c73 0 123 -27 123 -92v-168c26 -1 48 -3 48 -3zM289 111v37c-9 -2 -18 -4 -32 -4c-34 0 -45 7 -73 7c-35 0 -65 -27 -65 -67c0 -37 26 -67 77 -67c47 0 93 39 93 94zM108 464c0 30 24 54 54 54s54 -24 54 -54s-24 -54 -54 -54s-54 24 -54 54zM283 464
c0 30 24 54 54 54s54 -24 54 -54s-24 -54 -54 -54s-54 24 -54 54z" />
    <glyph glyph-name="atilde" unicode="&#xe3;" horiz-adv-x="460" 
d="M428 23c17 -2 15 -27 -2 -26c0 0 -55 4 -91 4c-14 0 -31 -1 -46 -1v31c-20 -24 -55 -41 -116 -41c-89 0 -143 43 -143 95s55 95 138 95c35 0 56 -9 86 -9c24 0 36 16 36 41c0 30 -19 47 -50 47c-24 0 -40 -8 -52 -19c-19 -18 -14 -37 -38 -37c-14 0 -24 9 -24 21
c0 29 55 62 131 62c73 0 123 -27 123 -92v-168c26 -1 48 -3 48 -3zM289 111v37c-9 -2 -18 -4 -32 -4c-34 0 -45 7 -73 7c-35 0 -65 -27 -65 -67c0 -37 26 -67 77 -67c47 0 93 39 93 94zM199 459c-8 5 -15 9 -23 9c-23 0 -42 -22 -42 -54c0 -18 -27 -18 -27 0
c0 61 36 119 97 119c20 0 33 -6 46 -15l70 -46c8 -5 15 -9 23 -9c23 0 42 22 42 54c0 18 27 18 27 0c0 -61 -36 -119 -97 -119c-20 0 -33 6 -46 15z" />
    <glyph glyph-name="aring" unicode="&#xe5;" horiz-adv-x="460" 
d="M428 23c17 -2 15 -27 -2 -26c0 0 -55 4 -91 4c-14 0 -31 -1 -46 -1v31c-20 -24 -55 -41 -116 -41c-89 0 -143 43 -143 95s55 95 138 95c35 0 56 -9 86 -9c24 0 36 16 36 41c0 30 -19 47 -50 47c-24 0 -40 -8 -52 -19c-19 -18 -14 -37 -38 -37c-14 0 -24 9 -24 21
c0 29 55 62 131 62c73 0 123 -27 123 -92v-168c26 -1 48 -3 48 -3zM289 111v37c-9 -2 -18 -4 -32 -4c-34 0 -45 7 -73 7c-35 0 -65 -27 -65 -67c0 -37 26 -67 77 -67c47 0 93 39 93 94zM361 455c0 -47 -51 -86 -112 -86s-112 39 -112 86s51 86 112 86s112 -39 112 -86z
M293 460c-4 33 -22 57 -51 54c-29 -4 -41 -32 -37 -64c4 -33 22 -57 51 -54c29 4 41 32 37 64z" />
    <glyph glyph-name="ccedilla" unicode="&#xe7;" horiz-adv-x="416" 
d="M192 -7c-86 13 -152 72 -152 145c0 83 85 148 192 148c67 0 105 -34 105 -82c0 -40 -23 -80 -64 -80c-22 0 -40 18 -40 40s14 32 33 42c11 6 18 13 18 24s-12 29 -52 29c-62 0 -92 -49 -92 -107c0 -76 36 -135 108 -135c46 0 99 27 126 66c10 15 32 -1 22 -16
c-26 -37 -67 -66 -128 -74v-72c47 -11 90 -43 90 -89c0 -53 -55 -94 -137 -94c-83 0 -128 30 -128 78c0 23 18 41 41 41c26 0 37 -17 43 -39c6 -20 20 -53 62 -53c45 0 71 29 71 67s-25 65 -76 65h-12c-20 0 -30 9 -30 30v66z" />
    <glyph glyph-name="eacute" unicode="&#xe9;" horiz-adv-x="436" 
d="M40 138c0 83 84 148 191 148c88 0 157 -56 157 -114c0 -36 -23 -53 -61 -53h-151c-18 0 -18 27 0 27h64c29 0 46 15 46 44c0 30 -20 69 -60 69c-55 0 -86 -49 -86 -107c0 -76 36 -135 108 -135c46 0 99 27 126 66c10 15 32 -1 22 -16c-31 -45 -85 -77 -167 -77
c-103 0 -189 65 -189 148zM244 533c18 15 43 12 58 -5c15 -18 13 -44 -4 -59c-14 -11 -102 -48 -159 -97c-14 -11 -32 10 -18 21c58 48 109 128 123 140z" />
    <glyph glyph-name="egrave" unicode="&#xe8;" horiz-adv-x="436" 
d="M40 138c0 83 84 148 191 148c88 0 157 -56 157 -114c0 -36 -23 -53 -61 -53h-151c-18 0 -18 27 0 27h64c29 0 46 15 46 44c0 30 -20 69 -60 69c-55 0 -86 -49 -86 -107c0 -76 36 -135 108 -135c46 0 99 27 126 66c10 15 32 -1 22 -16c-31 -45 -85 -77 -167 -77
c-103 0 -189 65 -189 148zM131 470c-18 15 -20 40 -5 58c15 17 41 20 58 6c14 -12 66 -92 123 -140c14 -12 -3 -32 -17 -21c-57 48 -145 85 -159 97z" />
    <glyph glyph-name="ecircumflex" unicode="&#xea;" horiz-adv-x="436" 
d="M40 138c0 83 84 148 191 148c88 0 157 -56 157 -114c0 -36 -23 -53 -61 -53h-151c-18 0 -18 27 0 27h64c29 0 46 15 46 44c0 30 -20 69 -60 69c-55 0 -86 -49 -86 -107c0 -76 36 -135 108 -135c46 0 99 27 126 66c10 15 32 -1 22 -16c-31 -45 -85 -77 -167 -77
c-103 0 -189 65 -189 148zM96 373c-15 -12 -32 8 -19 20c51 48 90 112 100 126c8 12 19 23 37 23s29 -11 37 -23c10 -14 49 -78 100 -126c13 -12 -4 -32 -19 -20c-30 24 -94 72 -118 84c-24 -12 -88 -60 -118 -84z" />
    <glyph glyph-name="edieresis" unicode="&#xeb;" horiz-adv-x="436" 
d="M40 138c0 83 84 148 191 148c88 0 157 -56 157 -114c0 -36 -23 -53 -61 -53h-151c-18 0 -18 27 0 27h64c29 0 46 15 46 44c0 30 -20 69 -60 69c-55 0 -86 -49 -86 -107c0 -76 36 -135 108 -135c46 0 99 27 126 66c10 15 32 -1 22 -16c-31 -45 -85 -77 -167 -77
c-103 0 -189 65 -189 148zM73 464c0 30 24 54 54 54s54 -24 54 -54s-24 -54 -54 -54s-54 24 -54 54zM248 464c0 30 24 54 54 54s54 -24 54 -54s-24 -54 -54 -54s-54 24 -54 54z" />
    <glyph glyph-name="iacute" unicode="&#xed;" horiz-adv-x="341" 
d="M211 20c45 0 86 42 86 99c0 18 27 18 27 0c0 -73 -53 -129 -130 -129c-69 0 -119 26 -119 100v169c-25 1 -48 3 -48 3c-17 1 -15 27 2 26c0 0 56 -4 91 -4c36 0 91 4 91 4c17 1 19 -24 2 -26c0 0 -22 -2 -47 -3v-187c0 -33 12 -52 45 -52zM150 533c18 15 43 12 58 -5
c15 -18 13 -44 -4 -59c-14 -11 -102 -48 -159 -97c-14 -11 -32 10 -18 21c58 48 109 128 123 140z" />
    <glyph glyph-name="igrave" unicode="&#xec;" horiz-adv-x="341" 
d="M211 20c45 0 86 42 86 99c0 18 27 18 27 0c0 -73 -53 -129 -130 -129c-69 0 -119 26 -119 100v169c-25 1 -48 3 -48 3c-17 1 -15 27 2 26c0 0 56 -4 91 -4c36 0 91 4 91 4c17 1 19 -24 2 -26c0 0 -22 -2 -47 -3v-187c0 -33 12 -52 45 -52zM37 470c-18 15 -20 40 -5 58
c15 17 41 20 58 6c14 -12 66 -92 123 -140c14 -12 -3 -32 -17 -21c-57 48 -145 85 -159 97z" />
    <glyph glyph-name="icircumflex" unicode="&#xee;" horiz-adv-x="341" 
d="M211 20c45 0 86 42 86 99c0 18 27 18 27 0c0 -73 -53 -129 -130 -129c-69 0 -119 26 -119 100v169c-25 1 -48 3 -48 3c-17 1 -15 27 2 26c0 0 56 -4 91 -4c36 0 91 4 91 4c17 1 19 -24 2 -26c0 0 -22 -2 -47 -3v-187c0 -33 12 -52 45 -52zM2 373c-15 -12 -32 8 -19 20
c51 48 90 112 100 126c8 12 19 23 37 23s29 -11 37 -23c10 -14 49 -78 100 -126c13 -12 -4 -32 -19 -20c-30 24 -94 72 -118 84c-24 -12 -88 -60 -118 -84z" />
    <glyph glyph-name="idieresis" unicode="&#xef;" horiz-adv-x="341" 
d="M211 20c45 0 86 42 86 99c0 18 27 18 27 0c0 -73 -53 -129 -130 -129c-69 0 -119 26 -119 100v169c-25 1 -48 3 -48 3c-17 1 -15 27 2 26c0 0 56 -4 91 -4c36 0 91 4 91 4c17 1 19 -24 2 -26c0 0 -22 -2 -47 -3v-187c0 -33 12 -52 45 -52zM-20 464c0 30 24 54 54 54
s54 -24 54 -54s-24 -54 -54 -54s-54 24 -54 54zM155 464c0 30 24 54 54 54s54 -24 54 -54s-24 -54 -54 -54s-54 24 -54 54z" />
    <glyph glyph-name="ntilde" unicode="&#xf1;" horiz-adv-x="490" 
d="M410 198v-172c26 -1 48 -3 48 -3c17 -2 15 -27 -2 -26c0 0 -55 4 -91 4c-35 0 -91 -4 -91 -4c-17 -1 -19 25 -2 26c0 0 22 2 47 3v190c0 24 -10 36 -34 36c-61 0 -118 -69 -118 -150v-76c25 -1 47 -3 47 -3c17 -2 15 -27 -2 -26c0 0 -56 4 -89 4c-32 0 -89 -4 -89 -4
c-17 -1 -19 25 -2 26c0 0 23 2 48 3v233c-26 1 -48 3 -48 3c-17 2 -15 27 2 26c0 0 55 -4 89 -4c12 0 29 1 44 1v-74c32 44 78 75 141 75c51 0 102 -28 102 -88zM182 459c-8 5 -15 9 -23 9c-23 0 -42 -22 -42 -54c0 -18 -27 -18 -27 0c0 61 36 119 97 119c20 0 33 -6 46 -15
l70 -46c8 -5 15 -9 23 -9c23 0 42 22 42 54c0 18 27 18 27 0c0 -61 -36 -119 -97 -119c-20 0 -33 6 -46 15z" />
    <glyph glyph-name="oacute" unicode="&#xf3;" horiz-adv-x="463" 
d="M423 138c0 -83 -84 -148 -191 -148s-192 65 -192 148s85 148 192 148s191 -65 191 -148zM324 129c0 70 -37 130 -97 130c-56 0 -87 -49 -87 -107c0 -76 37 -135 97 -135c57 0 87 49 87 112zM262 533c18 15 43 12 58 -5c15 -18 13 -44 -4 -59c-14 -11 -102 -48 -159 -97
c-14 -11 -32 10 -18 21c58 48 109 128 123 140z" />
    <glyph glyph-name="ograve" unicode="&#xf2;" horiz-adv-x="463" 
d="M423 138c0 -83 -84 -148 -191 -148s-192 65 -192 148s85 148 192 148s191 -65 191 -148zM324 129c0 70 -37 130 -97 130c-56 0 -87 -49 -87 -107c0 -76 37 -135 97 -135c57 0 87 49 87 112zM149 470c-18 15 -20 40 -5 58c15 17 41 20 58 6c14 -12 66 -92 123 -140
c14 -12 -3 -32 -17 -21c-57 48 -145 85 -159 97z" />
    <glyph glyph-name="ocircumflex" unicode="&#xf4;" horiz-adv-x="463" 
d="M423 138c0 -83 -84 -148 -191 -148s-192 65 -192 148s85 148 192 148s191 -65 191 -148zM324 129c0 70 -37 130 -97 130c-56 0 -87 -49 -87 -107c0 -76 37 -135 97 -135c57 0 87 49 87 112zM114 373c-15 -12 -32 8 -19 20c51 48 90 112 100 126c8 12 19 23 37 23
s29 -11 37 -23c10 -14 49 -78 100 -126c13 -12 -4 -32 -19 -20c-30 24 -94 72 -118 84c-24 -12 -88 -60 -118 -84z" />
    <glyph glyph-name="odieresis" unicode="&#xf6;" horiz-adv-x="463" 
d="M423 138c0 -83 -84 -148 -191 -148s-192 65 -192 148s85 148 192 148s191 -65 191 -148zM324 129c0 70 -37 130 -97 130c-56 0 -87 -49 -87 -107c0 -76 37 -135 97 -135c57 0 87 49 87 112zM90 464c0 30 24 54 54 54s54 -24 54 -54s-24 -54 -54 -54s-54 24 -54 54z
M265 464c0 30 24 54 54 54s54 -24 54 -54s-24 -54 -54 -54s-54 24 -54 54z" />
    <glyph glyph-name="otilde" unicode="&#xf5;" horiz-adv-x="463" 
d="M423 138c0 -83 -84 -148 -191 -148s-192 65 -192 148s85 148 192 148s191 -65 191 -148zM324 129c0 70 -37 130 -97 130c-56 0 -87 -49 -87 -107c0 -76 37 -135 97 -135c57 0 87 49 87 112zM171 459c-8 5 -15 9 -23 9c-23 0 -42 -22 -42 -54c0 -18 -27 -18 -27 0
c0 61 36 119 97 119c20 0 33 -6 46 -15l70 -46c8 -5 15 -9 23 -9c23 0 42 22 42 54c0 18 27 18 27 0c0 -61 -36 -119 -97 -119c-20 0 -33 6 -46 15z" />
    <glyph glyph-name="uacute" unicode="&#xfa;" horiz-adv-x="486" 
d="M319 181v78c-26 1 -48 3 -48 3c-17 2 -15 27 2 26c0 0 55 -4 89 -4c12 0 29 1 44 1v-259c26 -1 48 -3 48 -3c17 -2 15 -27 -2 -26c0 0 -56 4 -89 4c-13 0 -29 -1 -44 -1v69c-25 -43 -60 -79 -124 -79c-67 0 -120 25 -120 103v166c-26 1 -48 3 -48 3c-17 2 -15 27 2 26
c0 0 55 -4 91 -4c14 0 31 1 46 1v-211c0 -43 20 -55 46 -55c58 0 107 82 107 162zM272 533c18 15 43 12 58 -5c15 -18 13 -44 -4 -59c-14 -11 -102 -48 -159 -97c-14 -11 -32 10 -18 21c58 48 109 128 123 140z" />
    <glyph glyph-name="ugrave" unicode="&#xf9;" horiz-adv-x="486" 
d="M319 181v78c-26 1 -48 3 -48 3c-17 2 -15 27 2 26c0 0 55 -4 89 -4c12 0 29 1 44 1v-259c26 -1 48 -3 48 -3c17 -2 15 -27 -2 -26c0 0 -56 4 -89 4c-13 0 -29 -1 -44 -1v69c-25 -43 -60 -79 -124 -79c-67 0 -120 25 -120 103v166c-26 1 -48 3 -48 3c-17 2 -15 27 2 26
c0 0 55 -4 91 -4c14 0 31 1 46 1v-211c0 -43 20 -55 46 -55c58 0 107 82 107 162zM159 470c-18 15 -20 40 -5 58c15 17 41 20 58 6c14 -12 66 -92 123 -140c14 -12 -3 -32 -17 -21c-57 48 -145 85 -159 97z" />
    <glyph glyph-name="ucircumflex" unicode="&#xfb;" horiz-adv-x="486" 
d="M319 181v78c-26 1 -48 3 -48 3c-17 2 -15 27 2 26c0 0 55 -4 89 -4c12 0 29 1 44 1v-259c26 -1 48 -3 48 -3c17 -2 15 -27 -2 -26c0 0 -56 4 -89 4c-13 0 -29 -1 -44 -1v69c-25 -43 -60 -79 -124 -79c-67 0 -120 25 -120 103v166c-26 1 -48 3 -48 3c-17 2 -15 27 2 26
c0 0 55 -4 91 -4c14 0 31 1 46 1v-211c0 -43 20 -55 46 -55c58 0 107 82 107 162zM124 373c-15 -12 -32 8 -19 20c51 48 90 112 100 126c8 12 19 23 37 23s29 -11 37 -23c10 -14 49 -78 100 -126c13 -12 -4 -32 -19 -20c-30 24 -94 72 -118 84c-24 -12 -88 -60 -118 -84z
" />
    <glyph glyph-name="udieresis" unicode="&#xfc;" horiz-adv-x="486" 
d="M319 181v78c-26 1 -48 3 -48 3c-17 2 -15 27 2 26c0 0 55 -4 89 -4c12 0 29 1 44 1v-259c26 -1 48 -3 48 -3c17 -2 15 -27 -2 -26c0 0 -56 4 -89 4c-13 0 -29 -1 -44 -1v69c-25 -43 -60 -79 -124 -79c-67 0 -120 25 -120 103v166c-26 1 -48 3 -48 3c-17 2 -15 27 2 26
c0 0 55 -4 91 -4c14 0 31 1 46 1v-211c0 -43 20 -55 46 -55c58 0 107 82 107 162zM101 464c0 30 24 54 54 54s54 -24 54 -54s-24 -54 -54 -54s-54 24 -54 54zM276 464c0 30 24 54 54 54s54 -24 54 -54s-24 -54 -54 -54s-54 24 -54 54z" />
    <glyph glyph-name="degree" unicode="&#xb0;" horiz-adv-x="359" 
d="M309 378c0 -71 -59 -129 -130 -129s-129 58 -129 129s58 129 129 129s130 -58 130 -129zM261 378c0 45 -37 81 -82 81s-81 -36 -81 -81s36 -81 81 -81s82 36 82 81z" />
    <glyph glyph-name="registered" unicode="&#xae;" horiz-adv-x="713" 
d="M633 266c0 -153 -125 -276 -277 -276s-276 124 -276 276s124 276 276 276s277 -123 277 -276zM598 266c0 133 -109 241 -242 241s-241 -108 -241 -241s108 -241 241 -241s242 108 242 241zM403 340c0 39 -25 67 -64 67c-7 0 -18 0 -28 -1v-142c66 4 92 33 92 76zM244 112
c-15 0 -28 3 -36 7c-17 9 -3 31 10 24c4 -2 10 -4 14 -4c11 0 15 10 15 22v244l-23 1c-17 1 -15 26 2 26c0 0 37 -2 51 -2c27 0 44 3 78 3c65 0 112 -38 112 -92c0 -31 -16 -51 -33 -65c21 -6 39 -23 39 -50v-65c0 -12 4 -22 15 -22c4 0 10 2 14 4c13 7 27 -15 10 -24
c-8 -4 -21 -7 -36 -7c-38 0 -69 18 -69 59v69c0 9 -3 13 -10 13c-11 0 -22 -4 -31 -7c-19 -5 -38 -8 -55 -9v-66c0 -41 -29 -59 -67 -59z" />
    <glyph glyph-name="copyright" unicode="&#xa9;" horiz-adv-x="713" 
d="M633 266c0 -153 -125 -276 -277 -276s-276 124 -276 276s124 276 276 276s277 -123 277 -276zM598 266c0 133 -109 241 -242 241s-241 -108 -241 -241s108 -241 241 -241s242 108 242 241zM368 90c-100 0 -169 79 -169 176s72 176 158 176c55 0 83 -35 83 -78
c0 -52 -38 -87 -74 -87c-22 0 -39 17 -39 38s16 35 39 44c16 5 27 13 27 28s-11 28 -35 28c-57 0 -89 -60 -89 -134c0 -84 49 -161 113 -161c37 0 71 31 88 62c8 15 32 3 24 -12c-21 -39 -65 -80 -126 -80z" />
    <glyph glyph-name="trademark" unicode="&#x2122;" horiz-adv-x="793" 
d="M716 321c0 -13 6 -21 17 -21c5 0 9 2 14 4c17 7 26 -17 10 -24c-8 -4 -20 -8 -38 -8c-35 0 -67 17 -67 59v157c0 17 -5 22 -13 22c-25 0 -60 -38 -60 -87v-146s-16 2 -32 2c-17 0 -32 -2 -32 -2v211c0 17 -5 22 -14 22c-27 0 -62 -38 -62 -87v-118c6 0 12 -1 19 -1
c18 0 18 -27 0 -27c-19 0 -28 2 -50 2s-33 -2 -52 -2c-18 0 -18 27 0 27c7 0 13 1 19 1v196c-4 1 -14 1 -24 2c-7 -12 -23 -22 -51 -22c-27 0 -54 9 -74 14v-164c0 -42 -32 -59 -68 -59c-19 0 -31 4 -39 8c-16 7 -7 31 10 24c5 -2 9 -4 14 -4c11 0 17 8 17 21v191
c-12 3 -21 4 -31 4c-26 0 -41 -10 -41 -21c0 -5 2 -9 2 -14c0 -13 -11 -26 -29 -26s-31 14 -31 32c0 41 63 54 92 54c67 0 97 -24 141 -24c12 0 29 6 42 15c7 4 16 9 25 9c10 0 18 -5 22 -12c18 -1 39 -2 54 -2c16 0 24 1 33 1v-19c19 18 44 32 78 32c31 0 50 -14 57 -38
c19 22 45 38 83 38c39 0 59 -22 59 -57v-163z" />
    <glyph glyph-name="notequal" unicode="&#x2260;" horiz-adv-x="488" 
d="M250 201h-51c-40 0 -64 -3 -102 -3c-42 0 -42 62 0 62c38 0 62 -3 102 -3h88l53 81c10 15 32 1 22 -14l-43 -66c25 0 44 2 72 2c42 0 42 -62 0 -62c-38 0 -62 3 -102 3h-8l-44 -68h52c40 0 64 3 102 3c42 0 42 -62 0 -62c-38 0 -62 3 -102 3h-89l-53 -81
c-10 -15 -32 -1 -22 14l43 66c-24 0 -44 -2 -71 -2c-42 0 -42 62 0 62c38 0 62 -3 102 -3h7z" />
    <glyph glyph-name="infinity" unicode="&#x221e;" horiz-adv-x="648" 
d="M598 209c0 -68 -49 -141 -133 -141c-68 0 -111 43 -141 77c-30 -34 -73 -77 -141 -77c-84 0 -133 73 -133 141c0 69 49 138 133 138c67 0 110 -38 141 -74c31 36 74 74 141 74c84 0 133 -69 133 -138zM571 209c0 57 -51 82 -90 82c-64 0 -112 -73 -118 -82
c6 -11 54 -86 118 -86c39 0 90 26 90 86zM285 209c-6 9 -54 82 -118 82c-39 0 -90 -25 -90 -82c0 -60 51 -86 90 -86c64 0 112 75 118 86z" />
    <glyph glyph-name="plusminus" unicode="&#xb1;" horiz-adv-x="488" 
d="M391 199c-39 0 -63 3 -102 3h-17c1 -30 3 -52 3 -84c0 -42 -62 -42 -62 0c0 32 2 54 3 84h-17c-40 0 -64 -3 -102 -3c-42 0 -42 62 0 62c35 0 62 -3 102 -3h17c-1 30 -3 52 -3 84c0 42 62 42 62 0c0 -32 -2 -54 -3 -84h17c39 0 67 3 102 3c42 0 42 -62 0 -62zM391 -2
c-38 0 -62 3 -102 3h-90c-40 0 -64 -3 -102 -3c-42 0 -42 62 0 62c38 0 62 -3 102 -3h90c40 0 64 3 102 3c42 0 42 -62 0 -62z" />
    <glyph glyph-name="lessequal" unicode="&#x2264;" horiz-adv-x="450" 
d="M355 112c17 -11 1 -32 -14 -24c-62 34 -145 74 -219 97c-26 9 -44 18 -44 42s18 33 44 42c74 23 157 63 219 97c15 8 31 -13 14 -24c-51 -34 -143 -92 -174 -115c31 -23 123 -81 174 -115zM367 -2c-38 0 -62 3 -102 3h-54c-40 0 -64 -3 -102 -3c-42 0 -42 62 0 62
c38 0 62 -3 102 -3h54c40 0 64 3 102 3c42 0 42 -62 0 -62z" />
    <glyph glyph-name="greaterequal" unicode="&#x2265;" horiz-adv-x="450" 
d="M372 227c0 -24 -18 -33 -44 -42c-74 -23 -157 -63 -219 -97c-15 -8 -31 13 -14 24c51 34 143 92 174 115c-31 23 -123 81 -174 115c-17 11 -1 32 14 24c62 -34 145 -74 219 -97c26 -9 44 -18 44 -42zM341 -2c-38 0 -62 3 -102 3h-54c-40 0 -64 -3 -102 -3
c-42 0 -42 62 0 62c38 0 62 -3 102 -3h54c40 0 64 3 102 3c42 0 42 -62 0 -62z" />
    <glyph glyph-name="mu" unicode="&#xb5;" horiz-adv-x="479" 
d="M159 -8v-334c25 -1 47 -3 47 -3c17 -2 15 -27 -2 -26c0 0 -56 4 -88 4c-30 0 -87 -4 -87 -4c-17 -1 -19 25 -2 26c0 0 23 2 48 3v601c-26 1 -48 3 -48 3c-17 2 -15 27 2 26c0 0 55 -4 87 -4c11 0 28 1 43 1v-211c0 -43 20 -55 46 -55c58 0 107 82 107 162v78
c-26 1 -48 3 -48 3c-17 2 -15 27 2 26c0 0 55 -4 89 -4c12 0 29 1 44 1v-259c26 -1 48 -3 48 -3c17 -2 15 -27 -2 -26c0 0 -56 4 -89 4c-13 0 -29 -1 -44 -1v69c-25 -43 -60 -79 -124 -79c-10 0 -20 0 -29 2z" />
    <glyph glyph-name="partialdiff" unicode="&#x2202;" horiz-adv-x="474" 
d="M424 188c0 -108 -57 -198 -192 -198c-107 0 -192 65 -192 148s85 148 192 148c41 0 78 -9 109 -26c1 13 2 27 2 37c0 122 -86 156 -139 156c-42 0 -54 -36 -90 -36c-22 0 -41 19 -41 41c0 30 22 51 70 51c64 0 135 -30 187 -87c58 -59 94 -152 94 -234zM324 129
c0 70 -37 130 -97 130c-56 0 -87 -49 -87 -107c0 -76 37 -135 97 -135c57 0 87 49 87 112z" />
    <glyph glyph-name="summation" unicode="&#x2211;" horiz-adv-x="550" 
d="M486 121c0 -33 -15 -65 -36 -88c-22 -24 -60 -33 -98 -33h-294c-14 0 -24 16 -14 29l183 228l-184 254c-7 10 -3 23 10 23h317c17 0 30 -1 44 -5c27 -8 45 -36 45 -69c0 -14 -4 -30 -9 -41c-7 -16 -33 -7 -25 11c4 9 7 22 7 30c0 33 -23 39 -54 39h-211l133 -179
c7 -10 9 -17 1 -27l-164 -204h267c31 0 54 6 54 39c0 8 -3 21 -7 30c-8 18 18 28 25 11c5 -12 10 -31 10 -48z" />
    <glyph glyph-name="product" unicode="&#x220f;" horiz-adv-x="653" 
d="M205 499v-473c26 -1 48 -3 48 -3c17 -2 15 -27 -2 -26c0 0 -59 4 -94 4c-32 0 -93 -4 -93 -4c-17 -1 -19 25 -2 26c0 0 23 2 48 3v482c-26 1 -48 3 -48 3c-17 1 -15 27 2 26c0 0 156 -8 262 -8c99 0 263 8 263 8c17 1 19 -24 2 -26c0 0 -22 -2 -48 -3v-482
c26 -1 48 -3 48 -3c17 -2 15 -27 -2 -26c0 0 -59 4 -93 4c-35 0 -94 -4 -94 -4c-17 -1 -19 25 -2 26c0 0 23 2 48 3v473c-44 -3 -89 -5 -122 -5c-34 0 -78 2 -121 5z" />
    <glyph glyph-name="pi" unicode="&#x3c0;" horiz-adv-x="490" 
d="M426 77c0 -48 -32 -87 -81 -87c-56 0 -90 41 -90 107c0 41 13 88 29 126h-73c0 -166 -54 -233 -96 -233c-25 0 -43 17 -43 40s19 35 36 48c22 16 67 59 77 145h-17c-33 0 -75 -4 -101 -36c-10 -13 -33 3 -20 18c46 52 96 79 169 79h171c8 0 13 -6 13 -13v-35
c0 -7 -5 -13 -13 -13h-75c-15 -37 -30 -85 -30 -126c0 -50 22 -80 56 -80c20 0 32 13 32 29c0 19 -11 27 -24 38c-12 10 -24 19 -24 39c0 21 15 40 42 40c39 0 62 -47 62 -86z" />
    <glyph glyph-name="integral" unicode="&#x222b;" horiz-adv-x="251" 
d="M17 -367c-66 0 -107 38 -107 87c0 33 19 61 50 61c25 0 41 -19 41 -40c0 -24 -18 -32 -18 -54c0 -14 13 -27 38 -27c41 0 59 37 59 83v519c0 219 81 292 175 292c78 0 97 -58 97 -86c0 -33 -20 -62 -50 -62c-24 0 -41 20 -41 41c0 24 18 32 18 54c0 14 -13 26 -33 26
c-48 0 -75 -37 -75 -101v-509c0 -203 -69 -284 -154 -284z" />
    <glyph glyph-name="Omega" unicode="&#x3a9;" horiz-adv-x="690" 
d="M598 332c0 -93 -74 -173 -177 -199l-4 -44s50 3 81 3s92 -3 92 -3c1 25 3 47 3 47c1 18 28 16 27 -2c0 0 -4 -58 -4 -95v-24c1 -11 -7 -18 -16 -18c0 0 -71 4 -102 4s-105 -4 -105 -4c-9 0 -17 7 -16 18l11 129c1 14 6 15 14 19c57 26 97 94 97 169
c0 100 -69 182 -154 182s-154 -82 -154 -182c0 -75 40 -143 97 -169c8 -4 13 -5 14 -19l11 -129c1 -11 -7 -18 -16 -18c0 0 -74 4 -105 4s-102 -4 -102 -4c-9 0 -17 7 -16 18v24c0 37 -4 95 -4 95c-1 18 26 20 27 2c0 0 2 -22 3 -47c0 0 61 3 92 3s81 -3 81 -3l-4 44
c-103 26 -177 106 -177 199c0 115 113 209 253 209s253 -94 253 -209z" />
    <glyph glyph-name="logicalnot" unicode="&#xac;" horiz-adv-x="544" 
d="M403 199c-23 0 -44 2 -72 2h-138c-40 0 -64 -3 -102 -3c-42 0 -42 62 0 62c38 0 62 -3 102 -3h138c40 0 64 3 102 3c20 0 31 -13 31 -31c0 -38 -3 -62 -3 -102v-4c0 -40 3 -64 3 -102c0 -42 -62 -42 -62 0c0 38 3 62 3 102v4c0 28 -2 49 -2 72z" />
    <glyph glyph-name="radical" unicode="&#x221a;" horiz-adv-x="500" 
d="M179 285l77 -175l201 433c10 21 42 7 32 -14l-245 -528c-7 -15 -26 -14 -33 1l-121 256c-26 1 -48 3 -48 3c-18 2 -16 28 2 27c0 0 57 -4 94 -4c12 0 27 0 41 1z" />
    <glyph glyph-name="approxequal" unicode="&#x2248;" horiz-adv-x="488" 
d="M424 278c0 -49 -30 -97 -81 -97c-9 0 -22 2 -35 5l-165 41c-7 2 -14 3 -20 3c-15 0 -29 -10 -33 -40c-2 -17 -26 -15 -26 2c0 49 30 97 81 97c9 0 22 -2 35 -5l165 -41c7 -2 14 -3 20 -3c15 0 29 10 33 40c2 17 26 15 26 -2zM424 142c0 -49 -30 -97 -81 -97
c-9 0 -22 2 -35 5l-165 41c-7 2 -14 3 -20 3c-15 0 -29 -10 -33 -40c-2 -17 -26 -15 -26 2c0 49 30 97 81 97c9 0 22 -2 35 -5l165 -41c7 -2 14 -3 20 -3c15 0 29 10 33 40c2 17 26 15 26 -2z" />
    <glyph glyph-name="Delta" unicode="&#x394;" horiz-adv-x="563" 
d="M512 25c6 -14 -6 -25 -17 -25h-427c-11 0 -23 11 -17 25l215 496c7 15 23 15 30 0zM399 48l-155 357l-155 -357h310z" />
    <glyph glyph-name="nbspace" unicode="&#xa0;" horiz-adv-x="230" 
 />
    <glyph glyph-name="Agrave" unicode="&#xc0;" horiz-adv-x="635" 
d="M604 23c17 -2 15 -27 -2 -26c0 0 -59 4 -95 4c-35 0 -95 -4 -95 -4c-17 -1 -19 25 -2 26c0 0 25 2 44 3l-51 161h-141c-18 0 -38 1 -56 2c-33 -104 -82 -199 -175 -199c-18 0 -35 3 -54 12c-16 7 -6 31 10 24c17 -7 30 -9 44 -9c76 0 106 94 129 180
c-66 12 -126 43 -126 85c0 25 17 43 40 43s31 -15 48 -36c14 -18 30 -34 49 -46l8 29c40 144 105 269 253 269c17 0 24 -6 24 -15s-6 -13 -14 -15c-12 -3 -22 -14 -22 -35c0 -14 4 -26 9 -41l71 -222l81 -3c17 -1 15 -27 -2 -26l-71 3l52 -161c18 -1 44 -3 44 -3zM394 214
l-30 95c-9 29 -15 55 -15 86c0 42 14 91 37 115c-104 -19 -140 -166 -158 -239l-12 -48c22 -6 50 -9 80 -9h98zM276 686c-18 15 -20 40 -5 58c15 17 41 20 58 6c14 -12 66 -92 123 -140c14 -12 -3 -32 -17 -21c-57 48 -145 85 -159 97z" />
    <glyph glyph-name="Atilde" unicode="&#xc3;" horiz-adv-x="635" 
d="M604 23c17 -2 15 -27 -2 -26c0 0 -59 4 -95 4c-35 0 -95 -4 -95 -4c-17 -1 -19 25 -2 26c0 0 25 2 44 3l-51 161h-141c-18 0 -38 1 -56 2c-33 -104 -82 -199 -175 -199c-18 0 -35 3 -54 12c-16 7 -6 31 10 24c17 -7 30 -9 44 -9c76 0 106 94 129 180
c-66 12 -126 43 -126 85c0 25 17 43 40 43s31 -15 48 -36c14 -18 30 -34 49 -46l8 29c40 144 105 269 253 269c17 0 24 -6 24 -15s-6 -13 -14 -15c-12 -3 -22 -14 -22 -35c0 -14 4 -26 9 -41l71 -222l81 -3c17 -1 15 -27 -2 -26l-71 3l52 -161c18 -1 44 -3 44 -3zM394 214
l-30 95c-9 29 -15 55 -15 86c0 42 14 91 37 115c-104 -19 -140 -166 -158 -239l-12 -48c22 -6 50 -9 80 -9h98zM298 675c-8 5 -15 9 -23 9c-23 0 -42 -22 -42 -54c0 -18 -27 -18 -27 0c0 61 36 119 97 119c20 0 33 -6 46 -15l70 -46c8 -5 15 -9 23 -9c23 0 42 22 42 54
c0 18 27 18 27 0c0 -61 -36 -119 -97 -119c-20 0 -33 6 -46 15z" />
    <glyph glyph-name="Otilde" unicode="&#xd5;" horiz-adv-x="678" 
d="M628 265c0 -152 -129 -275 -289 -275s-289 123 -289 275s129 276 289 276s289 -124 289 -276zM519 244c0 136 -78 270 -189 270c-105 0 -171 -93 -171 -229c0 -142 81 -268 192 -268c101 0 168 97 168 227zM278 675c-8 5 -15 9 -23 9c-23 0 -42 -22 -42 -54
c0 -18 -27 -18 -27 0c0 61 36 119 97 119c20 0 33 -6 46 -15l70 -46c8 -5 15 -9 23 -9c23 0 42 22 42 54c0 18 27 18 27 0c0 -61 -36 -119 -97 -119c-20 0 -33 6 -46 15z" />
    <glyph glyph-name="divide" unicode="&#xf7;" horiz-adv-x="488" 
d="M295 294c0 -28 -23 -50 -51 -50s-50 22 -50 50s22 50 50 50s51 -22 51 -50zM411 136c-38 0 -62 3 -102 3h-130c-40 0 -64 -3 -102 -3c-42 0 -42 62 0 62c38 0 62 -3 102 -3h130c40 0 64 3 102 3c42 0 42 -62 0 -62zM295 40c0 -28 -23 -50 -51 -50s-50 22 -50 50
s22 50 50 50s51 -22 51 -50z" />
    <glyph glyph-name="lozenge" unicode="&#x25ca;" horiz-adv-x="446" 
d="M402 254l-160 -250c-12 -19 -28 -19 -40 0l-158 250c-5 8 -5 18 0 26l158 249c12 19 28 19 40 0l160 -249c5 -8 5 -18 0 -26zM354 267l-132 205l-130 -205l130 -206z" />
    <glyph glyph-name="ydieresis" unicode="&#xff;" horiz-adv-x="463" 
d="M104 -333c-74 0 -112 41 -112 89c0 40 24 73 61 73c24 0 44 -14 44 -39c0 -17 -11 -26 -22 -34c-14 -10 -27 -17 -27 -33s19 -29 60 -29c139 0 196 192 196 337v34c-31 -44 -71 -75 -117 -75c-57 0 -102 26 -102 98v128c0 27 -13 47 -42 47c-9 0 -19 -2 -29 -7
c-14 -7 -27 17 -10 25c14 7 36 12 56 12c66 0 116 -27 116 -95v-134c0 -29 9 -40 29 -40c38 0 99 69 99 150v85c-26 1 -48 3 -48 3c-17 2 -15 27 2 26c0 0 54 -4 90 -4c14 0 30 1 45 1v-224c0 -45 -3 -77 -10 -108c-34 -152 -143 -286 -279 -286zM97 464c0 30 24 54 54 54
s54 -24 54 -54s-24 -54 -54 -54s-54 24 -54 54zM272 464c0 30 24 54 54 54s54 -24 54 -54s-24 -54 -54 -54s-54 24 -54 54z" />
    <glyph glyph-name="Ydieresis" unicode="&#x178;" horiz-adv-x="568" 
d="M157 -3c-17 -1 -19 25 -2 26c0 0 23 2 48 3v197l-198 285c-16 1 -39 3 -39 3c-17 1 -15 27 2 26c0 0 60 -4 94 -4c35 0 94 4 94 4c17 1 19 -24 2 -26c0 0 -24 -2 -42 -3l174 -251c6 14 15 31 27 51c91 146 169 233 237 233c28 0 43 -20 43 -41c0 -27 -17 -40 -44 -42
c-98 -7 -152 -63 -212 -164c-13 -22 -42 -69 -42 -150v-118c26 -1 48 -3 48 -3c17 -2 15 -27 -2 -26c0 0 -59 4 -94 4c-34 0 -94 -4 -94 -4zM140 680c0 30 24 54 54 54s54 -24 54 -54s-24 -54 -54 -54s-54 24 -54 54zM315 680c0 30 24 54 54 54s54 -24 54 -54
s-24 -54 -54 -54s-54 24 -54 54z" />
    <glyph glyph-name="Acircumflex" unicode="&#xc2;" horiz-adv-x="635" 
d="M604 23c17 -2 15 -27 -2 -26c0 0 -59 4 -95 4c-35 0 -95 -4 -95 -4c-17 -1 -19 25 -2 26c0 0 25 2 44 3l-51 161h-141c-18 0 -38 1 -56 2c-33 -104 -82 -199 -175 -199c-18 0 -35 3 -54 12c-16 7 -6 31 10 24c17 -7 30 -9 44 -9c76 0 106 94 129 180
c-66 12 -126 43 -126 85c0 25 17 43 40 43s31 -15 48 -36c14 -18 30 -34 49 -46l8 29c40 144 105 269 253 269c17 0 24 -6 24 -15s-6 -13 -14 -15c-12 -3 -22 -14 -22 -35c0 -14 4 -26 9 -41l71 -222l81 -3c17 -1 15 -27 -2 -26l-71 3l52 -161c18 -1 44 -3 44 -3zM394 214
l-30 95c-9 29 -15 55 -15 86c0 42 14 91 37 115c-104 -19 -140 -166 -158 -239l-12 -48c22 -6 50 -9 80 -9h98zM237 589c-15 -12 -32 8 -19 20c51 48 90 112 100 126c8 12 19 23 37 23s29 -11 37 -23c10 -14 49 -78 100 -126c13 -12 -4 -32 -19 -20c-30 24 -94 72 -118 84
c-24 -12 -88 -60 -118 -84z" />
    <glyph glyph-name="Ecircumflex" unicode="&#xca;" horiz-adv-x="499" 
d="M175 404c0 -41 17 -68 35 -84c13 -12 25 -22 25 -41s-11 -28 -25 -41c-29 -27 -49 -52 -49 -98c0 -69 57 -121 130 -121c84 0 142 59 167 107c8 15 32 3 24 -12c-29 -56 -91 -124 -205 -124c-100 0 -227 32 -227 150c0 99 103 120 134 123c16 2 22 7 22 16
c0 10 -6 14 -21 17c-46 10 -113 35 -113 108c0 98 110 137 200 137c103 0 131 -55 131 -97c0 -51 -37 -89 -77 -89c-27 0 -45 19 -45 42s18 38 37 42c21 4 35 16 35 34s-19 40 -67 40c-62 0 -111 -44 -111 -109zM136 589c-15 -12 -32 8 -19 20c51 48 90 112 100 126
c8 12 19 23 37 23s29 -11 37 -23c10 -14 49 -78 100 -126c13 -12 -4 -32 -19 -20c-30 24 -94 72 -118 84c-24 -12 -88 -60 -118 -84z" />
    <glyph glyph-name="Aacute" unicode="&#xc1;" horiz-adv-x="635" 
d="M604 23c17 -2 15 -27 -2 -26c0 0 -59 4 -95 4c-35 0 -95 -4 -95 -4c-17 -1 -19 25 -2 26c0 0 25 2 44 3l-51 161h-141c-18 0 -38 1 -56 2c-33 -104 -82 -199 -175 -199c-18 0 -35 3 -54 12c-16 7 -6 31 10 24c17 -7 30 -9 44 -9c76 0 106 94 129 180
c-66 12 -126 43 -126 85c0 25 17 43 40 43s31 -15 48 -36c14 -18 30 -34 49 -46l8 29c40 144 105 269 253 269c17 0 24 -6 24 -15s-6 -13 -14 -15c-12 -3 -22 -14 -22 -35c0 -14 4 -26 9 -41l71 -222l81 -3c17 -1 15 -27 -2 -26l-71 3l52 -161c18 -1 44 -3 44 -3zM394 214
l-30 95c-9 29 -15 55 -15 86c0 42 14 91 37 115c-104 -19 -140 -166 -158 -239l-12 -48c22 -6 50 -9 80 -9h98zM390 749c18 15 43 12 58 -5c15 -18 13 -44 -4 -59c-14 -11 -102 -48 -159 -97c-14 -11 -32 10 -18 21c58 48 109 128 123 140z" />
    <glyph glyph-name="Edieresis" unicode="&#xcb;" horiz-adv-x="499" 
d="M175 404c0 -41 17 -68 35 -84c13 -12 25 -22 25 -41s-11 -28 -25 -41c-29 -27 -49 -52 -49 -98c0 -69 57 -121 130 -121c84 0 142 59 167 107c8 15 32 3 24 -12c-29 -56 -91 -124 -205 -124c-100 0 -227 32 -227 150c0 99 103 120 134 123c16 2 22 7 22 16
c0 10 -6 14 -21 17c-46 10 -113 35 -113 108c0 98 110 137 200 137c103 0 131 -55 131 -97c0 -51 -37 -89 -77 -89c-27 0 -45 19 -45 42s18 38 37 42c21 4 35 16 35 34s-19 40 -67 40c-62 0 -111 -44 -111 -109zM109 680c0 30 24 54 54 54s54 -24 54 -54s-24 -54 -54 -54
s-54 24 -54 54zM284 680c0 30 24 54 54 54s54 -24 54 -54s-24 -54 -54 -54s-54 24 -54 54z" />
    <glyph glyph-name="Egrave" unicode="&#xc8;" horiz-adv-x="499" 
d="M175 404c0 -41 17 -68 35 -84c13 -12 25 -22 25 -41s-11 -28 -25 -41c-29 -27 -49 -52 -49 -98c0 -69 57 -121 130 -121c84 0 142 59 167 107c8 15 32 3 24 -12c-29 -56 -91 -124 -205 -124c-100 0 -227 32 -227 150c0 99 103 120 134 123c16 2 22 7 22 16
c0 10 -6 14 -21 17c-46 10 -113 35 -113 108c0 98 110 137 200 137c103 0 131 -55 131 -97c0 -51 -37 -89 -77 -89c-27 0 -45 19 -45 42s18 38 37 42c21 4 35 16 35 34s-19 40 -67 40c-62 0 -111 -44 -111 -109zM157 686c-18 15 -20 40 -5 58c15 17 41 20 58 6
c14 -12 66 -92 123 -140c14 -12 -3 -32 -17 -21c-57 48 -145 85 -159 97z" />
    <glyph glyph-name="Iacute" unicode="&#xcd;" horiz-adv-x="295" 
d="M236 744c15 -18 13 -44 -4 -59c-14 -11 -102 -48 -159 -97c-14 -11 -32 10 -18 21c58 48 109 128 123 140c18 15 43 12 58 -5zM149 1c-32 0 -95 -4 -95 -4c-17 -1 -19 25 -2 26c0 0 23 2 48 3v482c-25 1 -48 3 -48 3c-17 1 -15 27 2 26c0 0 62 -4 95 -4c30 0 92 4 92 4
c17 1 19 -24 2 -26c0 0 -22 -2 -48 -3v-482c26 -1 48 -3 48 -3c17 -2 15 -27 -2 -26c0 0 -63 4 -92 4z" />
    <glyph glyph-name="Icircumflex" unicode="&#xce;" horiz-adv-x="295" 
d="M285 609c13 -12 -4 -32 -19 -20c-30 24 -94 72 -118 84c-24 -12 -88 -60 -118 -84c-15 -12 -32 8 -19 20c51 48 90 112 100 126c8 12 19 23 37 23s29 -11 37 -23c10 -14 49 -78 100 -126zM149 1c-32 0 -95 -4 -95 -4c-17 -1 -19 25 -2 26c0 0 23 2 48 3v482
c-25 1 -48 3 -48 3c-17 1 -15 27 2 26c0 0 62 -4 95 -4c30 0 92 4 92 4c17 1 19 -24 2 -26c0 0 -22 -2 -48 -3v-482c26 -1 48 -3 48 -3c17 -2 15 -27 -2 -26c0 0 -63 4 -92 4z" />
    <glyph glyph-name="Idieresis" unicode="&#xcf;" horiz-adv-x="295" 
d="M290 680c0 -30 -24 -54 -54 -54s-54 24 -54 54s24 54 54 54s54 -24 54 -54zM115 680c0 -30 -24 -54 -54 -54s-54 24 -54 54s24 54 54 54s54 -24 54 -54zM149 1c-32 0 -95 -4 -95 -4c-17 -1 -19 25 -2 26c0 0 23 2 48 3v482c-25 1 -48 3 -48 3c-17 1 -15 27 2 26
c0 0 62 -4 95 -4c30 0 92 4 92 4c17 1 19 -24 2 -26c0 0 -22 -2 -48 -3v-482c26 -1 48 -3 48 -3c17 -2 15 -27 -2 -26c0 0 -63 4 -92 4z" />
    <glyph glyph-name="Igrave" unicode="&#xcc;" horiz-adv-x="295" 
d="M241 610c14 -12 -3 -32 -17 -21c-57 48 -145 85 -159 97c-18 15 -20 40 -5 58c15 17 41 20 58 6c14 -12 66 -92 123 -140zM149 1c-32 0 -95 -4 -95 -4c-17 -1 -19 25 -2 26c0 0 23 2 48 3v482c-25 1 -48 3 -48 3c-17 1 -15 27 2 26c0 0 62 -4 95 -4c30 0 92 4 92 4
c17 1 19 -24 2 -26c0 0 -22 -2 -48 -3v-482c26 -1 48 -3 48 -3c17 -2 15 -27 -2 -26c0 0 -63 4 -92 4z" />
    <glyph glyph-name="Oacute" unicode="&#xd3;" horiz-adv-x="678" 
d="M628 265c0 -152 -129 -275 -289 -275s-289 123 -289 275s129 276 289 276s289 -124 289 -276zM519 244c0 136 -78 270 -189 270c-105 0 -171 -93 -171 -229c0 -142 81 -268 192 -268c101 0 168 97 168 227zM369 749c18 15 43 12 58 -5c15 -18 13 -44 -4 -59
c-14 -11 -102 -48 -159 -97c-14 -11 -32 10 -18 21c58 48 109 128 123 140z" />
    <glyph glyph-name="Ocircumflex" unicode="&#xd4;" horiz-adv-x="678" 
d="M628 265c0 -152 -129 -275 -289 -275s-289 123 -289 275s129 276 289 276s289 -124 289 -276zM519 244c0 136 -78 270 -189 270c-105 0 -171 -93 -171 -229c0 -142 81 -268 192 -268c101 0 168 97 168 227zM221 589c-15 -12 -32 8 -19 20c51 48 90 112 100 126
c8 12 19 23 37 23s29 -11 37 -23c10 -14 49 -78 100 -126c13 -12 -4 -32 -19 -20c-30 24 -94 72 -118 84c-24 -12 -88 -60 -118 -84z" />
    <glyph glyph-name="apple" unicode="&#xf8ff;" 
 />
    <glyph glyph-name="Ograve" unicode="&#xd2;" horiz-adv-x="678" 
d="M628 265c0 -152 -129 -275 -289 -275s-289 123 -289 275s129 276 289 276s289 -124 289 -276zM519 244c0 136 -78 270 -189 270c-105 0 -171 -93 -171 -229c0 -142 81 -268 192 -268c101 0 168 97 168 227zM256 686c-18 15 -20 40 -5 58c15 17 41 20 58 6
c14 -12 66 -92 123 -140c14 -12 -3 -32 -17 -21c-57 48 -145 85 -159 97z" />
    <glyph glyph-name="Uacute" unicode="&#xda;" horiz-adv-x="618" 
d="M529 -10c-65 0 -117 27 -117 95v11c-42 -67 -106 -106 -169 -106c-87 0 -148 39 -148 136v338c0 27 -13 47 -38 47c-9 0 -19 -2 -29 -7c-14 -7 -27 17 -10 25c14 7 36 12 56 12c67 0 119 -27 119 -95v-343c0 -64 30 -82 63 -82c70 0 156 83 156 222v291c17 0 34 -1 47 -1
c32 0 93 4 93 4c17 1 19 -25 2 -26c0 0 -22 -2 -48 -3v-441c0 -27 13 -47 38 -47c9 0 19 2 29 7c14 7 27 -17 10 -25c-14 -7 -33 -12 -54 -12zM332 749c18 15 43 12 58 -5c15 -18 13 -44 -4 -59c-14 -11 -102 -48 -159 -97c-14 -11 -32 10 -18 21c58 48 109 128 123 140z
" />
    <glyph glyph-name="Ucircumflex" unicode="&#xdb;" horiz-adv-x="618" 
d="M529 -10c-65 0 -117 27 -117 95v11c-42 -67 -106 -106 -169 -106c-87 0 -148 39 -148 136v338c0 27 -13 47 -38 47c-9 0 -19 -2 -29 -7c-14 -7 -27 17 -10 25c14 7 36 12 56 12c67 0 119 -27 119 -95v-343c0 -64 30 -82 63 -82c70 0 156 83 156 222v291c17 0 34 -1 47 -1
c32 0 93 4 93 4c17 1 19 -25 2 -26c0 0 -22 -2 -48 -3v-441c0 -27 13 -47 38 -47c9 0 19 2 29 7c14 7 27 -17 10 -25c-14 -7 -33 -12 -54 -12zM184 589c-15 -12 -32 8 -19 20c51 48 90 112 100 126c8 12 19 23 37 23s29 -11 37 -23c10 -14 49 -78 100 -126
c13 -12 -4 -32 -19 -20c-30 24 -94 72 -118 84c-24 -12 -88 -60 -118 -84z" />
    <glyph glyph-name="Ugrave" unicode="&#xd9;" horiz-adv-x="618" 
d="M529 -10c-65 0 -117 27 -117 95v11c-42 -67 -106 -106 -169 -106c-87 0 -148 39 -148 136v338c0 27 -13 47 -38 47c-9 0 -19 -2 -29 -7c-14 -7 -27 17 -10 25c14 7 36 12 56 12c67 0 119 -27 119 -95v-343c0 -64 30 -82 63 -82c70 0 156 83 156 222v291c17 0 34 -1 47 -1
c32 0 93 4 93 4c17 1 19 -25 2 -26c0 0 -22 -2 -48 -3v-441c0 -27 13 -47 38 -47c9 0 19 2 29 7c14 7 27 -17 10 -25c-14 -7 -33 -12 -54 -12zM219 686c-18 15 -20 40 -5 58c15 17 41 20 58 6c14 -12 66 -92 123 -140c14 -12 -3 -32 -17 -21c-57 48 -145 85 -159 97z" />
    </font>
</defs>
</svg>
